荣光无限论坛

找回密码
注册

QQ登录

新浪微博登陆

搜索
热搜: 邀请 充值 邮箱
查看: 1426|回复: 32
收起左侧

[电影剧集] 1985. 龙凤智多星 (DVDRip.香港三区) [1.95GB]

[复制链接]
发表于 2015-1-31 21:45 | 显示全部楼层 |阅读模式

马上注册,结交更多同道中人,享用更多功能,让你轻松融入哥迷大家庭。

您需要 登录 才可以下载或查看,没有帐号?注册 新浪微博登陆

x
《龙凤智多星》是由黎应就执导,王家卫、黄炳耀编剧,张国荣、倪淑君、楼南光、林忆莲、冯淬帆、曹查理主演的电影。倪淑君与张国荣在1995年电影《金玉满堂》中有过第二次合作。电影里印象比较深的是Leslie与倪淑君拼啤酒,一组长镜头下来,真的喝了不少。

Intellectual Trio.jpg

中文名:龙凤智多星
外文名:Intellectual Trio
发 行:香港寰亚电影发行有限公司
地 区:香港
导 演:黎应就
编 剧:王家卫 / 黄炳耀
类 型:剧情/喜剧/犯罪/动作/警匪
主 演:张国荣,倪淑君,林忆莲,楼南光
片 长:89分钟
上 映:1985年6月6日
对 白:粤语

电影剧情:
台湾刑警西门汀被派来港作警政交流,误会中被港方探长张荣逮捕,幸而谷督察及时澄清,更派荣招待汀以和解彼此之芥蒂。
一次偶然机会下,荣及汀邂逅一对扒手姐妹花,二人为之心仪,然而姐姐双眼皮及妹妹单眼皮均对他们不感兴趣。杀手米安执行一神秘任务时,被“双”“单”二人顺手命了其古玉,使米对她们穷追不舍。“双”只好施计投警被捕以谋脱险。及后巧逢荣及汀;”双“遂利用汀以摆脱米,米唯有从汀处套取”双“家,却产生误会,最后冰释前嫌,四人亦因而感情突进,堕入爱河。一日,米跟踪”单“归家,在逼问古玉去向时杀了她,”双“悲痛不已,发誓为妹报仇。

编码信息:
  1. General
  2. Unique ID                      : 193336607654861047741514844471843661365 (0x917346B53B48574198D6331613A4A635)
  3. Format                         : Matroska
  4. Format version                 : Version 4 / Version 2
  5. File size                      : 1.95 GiB
  6. Duration                       : 1h 25mn
  7. Overall bit rate               : 3 267 Kbps
  8. Movie name                     : 龍鳳智多星 (1985)
  9. Encoded date                   : UTC 2010-02-22 21:41:31
  10. Writing application            : mkvmerge v5.9.0 ('On The Loose') built on Dec  9 2012 15:37:01
  11. Writing library                : libebml v1.3.0 + libmatroska v1.4.0

  12. Video
  13. ID                             : 1
  14. Format                         : AVC
  15. Format/Info                    : Advanced Video Codec
  16. Format profile                 : Main@L3.1
  17. Format settings, CABAC         : Yes
  18. Format settings, ReFrames      : 4 frames
  19. Muxing mode                    : Header stripping
  20. Codec ID                       : V_MPEG4/ISO/AVC
  21. Duration                       : 1h 25mn
  22. Bit rate                       : 2 640 Kbps
  23. Width                          : 1 024 pixels
  24. Height                         : 768 pixels
  25. Display aspect ratio           : 4:3
  26. Frame rate mode                : Constant
  27. Frame rate                     : 29.970 fps
  28. Color space                    : YUV
  29. Chroma subsampling             : 4:2:0
  30. Bit depth                      : 8 bits
  31. Scan type                      : Progressive
  32. Bits/(Pixel*Frame)             : 0.112
  33. Stream size                    : 1.53 GiB (78%)
  34. Writing library                : x264 core 116 r2019 9cc407d
  35. Encoding settings              : cabac=1 / ref=3 / deblock=1:0:0 / analyse=0x1:0x111 / me=hex / subme=6 / psy=1 / psy_rd=1.00:0.00 / mixed_ref=1 / me_range=16 / chroma_me=1 / trellis=1 / 8x8dct=0 / cqm=0 / deadzone=21,11 / fast_pskip=1 / chroma_qp_offset=-2 / threads=3 / sliced_threads=0 / nr=0 / decimate=1 / interlaced=0 / bluray_compat=0 / constrained_intra=0 / bframes=3 / b_pyramid=2 / b_adapt=1 / b_bias=0 / direct=1 / weightb=1 / open_gop=0 / weightp=2 / keyint=250 / keyint_min=25 / scenecut=40 / intra_refresh=0 / rc_lookahead=40 / rc=abr / mbtree=1 / bitrate=2640 / ratetol=1.0 / qcomp=0.60 / qpmin=0 / qpmax=69 / qpstep=4 / vbv_maxrate=3000 / vbv_bufsize=600 / nal_hrd=none / ip_ratio=1.40 / aq=1:1.00
  36. Default                        : Yes
  37. Forced                         : No

  38. Audio #1
  39. ID                             : 2
  40. Format                         : AC-3
  41. Format/Info                    : Audio Coding 3
  42. Mode extension                 : CM (complete main)
  43. Format settings, Endianness    : Big
  44. Muxing mode                    : Header stripping
  45. Codec ID                       : A_AC3
  46. Duration                       : 1h 25mn
  47. Bit rate mode                  : Constant
  48. Bit rate                       : 320 Kbps
  49. Channel(s)                     : 2 channels
  50. Channel positions              : Front: L R
  51. Sampling rate                  : 48.0 KHz
  52. Bit depth                      : 16 bits
  53. Compression mode               : Lossy
  54. Stream size                    : 196 MiB (10%)
  55. Title                          : 粤语
  56. Language                       : Chinese
  57. Default                        : Yes
  58. Forced                         : No

  59. Audio #2
  60. ID                             : 3
  61. Format                         : AC-3
  62. Format/Info                    : Audio Coding 3
  63. Mode extension                 : CM (complete main)
  64. Format settings, Endianness    : Big
  65. Muxing mode                    : Header stripping
  66. Codec ID                       : A_AC3
  67. Duration                       : 1h 25mn
  68. Bit rate mode                  : Constant
  69. Bit rate                       : 320 Kbps
  70. Channel(s)                     : 3 channels
  71. Channel positions              : Front: L R,   Back: C
  72. Sampling rate                  : 48.0 KHz
  73. Bit depth                      : 16 bits
  74. Compression mode               : Lossy
  75. Stream size                    : 196 MiB (10%)
  76. Title                          : 国语
  77. Language                       : Chinese
  78. Default                        : No
  79. Forced                         : No

  80. Text #1
  81. ID                             : 4
  82. Format                         : VobSub
  83. Muxing mode                    : zlib
  84. Codec ID                       : S_VOBSUB
  85. Codec ID/Info                  : The same subtitle format used on DVDs
  86. Title                          : 繁体中文
  87. Language                       : Chinese
  88. Default                        : Yes
  89. Forced                         : No

  90. Text #2
  91. ID                             : 5
  92. Format                         : VobSub
  93. Muxing mode                    : zlib
  94. Codec ID                       : S_VOBSUB
  95. Codec ID/Info                  : The same subtitle format used on DVDs
  96. Title                          : 简体中文
  97. Language                       : Chinese
  98. Default                        : No
  99. Forced                         : No

  100. Text #3
  101. ID                             : 6
  102. Format                         : VobSub
  103. Muxing mode                    : zlib
  104. Codec ID                       : S_VOBSUB
  105. Codec ID/Info                  : The same subtitle format used on DVDs
  106. Title                          : English
  107. Language                       : English
  108. Default                        : No
  109. Forced                         : No
复制代码

下载地址:
游客,如果您要查看本帖隐藏内容请回复

发表于 2015-1-31 21:52 | 显示全部楼层
感谢分享
发表于 2015-2-1 12:20 | 显示全部楼层
昨天电视上还在播放这部电影~谢谢!
发表于 2015-2-1 12:58 | 显示全部楼层
多谢分享!
发表于 2015-2-1 14:17 (来自手机版) | 显示全部楼层
这也是一部不太好找资源的作品。
发表于 2015-2-8 18:00 | 显示全部楼层
多谢分享!
发表于 2015-2-9 01:50 | 显示全部楼层
谢谢分享!!!
发表于 2015-2-10 13:53 | 显示全部楼层
感谢有心人的分享。
发表于 2015-2-11 21:36 | 显示全部楼层
谢谢楼主分享!
发表于 2015-2-20 18:38 | 显示全部楼层
多谢分享好资源!!新年快乐!
发表于 2015-2-26 15:51 | 显示全部楼层
還沒看過.....
发表于 2015-3-16 18:02 | 显示全部楼层
比之前下载的清晰   
发表于 2015-3-18 23:18 | 显示全部楼层
谢谢分享~这个资源不太好找。
发表于 2015-7-11 14:35 | 显示全部楼层
谢谢分享,不过链接已经失效了。。。。。。。。。。
发表于 2015-8-10 14:57 | 显示全部楼层
多谢分享
您需要登录后才可以回帖 登录 | 注册 新浪微博登陆

本版积分规则

手机客户端|小黑屋|Archiver|关于我们|联系方式| 荣光无限|沪ICP备09096540号-1

© 2002-2018 荣光无限 - 张国荣歌影迷网   版权所有

快速回复 返回顶部 返回列表