荣光无限论坛

找回密码
注册

QQ登录

新浪微博登陆

搜索
热搜: 邀请 充值 邮箱
查看: 5219|回复: 63
收起左侧

[电影剧集] 1996. 色情男女 (DVDRip.日本二区) [2.83GB]

[复制链接]
发表于 2015-1-6 15:48 | 显示全部楼层 |阅读模式

马上注册,结交更多同道中人,享用更多功能,让你轻松融入哥迷大家庭。

您需要 登录 才可以下载或查看,没有帐号?注册 新浪微博登陆

x
《色情男女》是1996年由尔冬升与罗志良联合执导的香港电影,由张国荣、莫文蔚、舒淇等主演,该电影入围了第47届柏林影展,并得到第16届香港电影金像奖最佳电影等7项提名,舒淇得到最佳女配角及最佳新人奖。电影于1996年11月28日上映。
虽然在网络电影中,《色情男女》常被大众肤浅的定义为色情片,但如影评所言,这真的是一部真诚的电影。尤其片中的徐锦江和舒淇,其实演的就是他们自己的性格和人生。坦然专心的看过之后,收获的应该是心酸和感动。

Viva_Erotica.jpg

中文名:色情男女
外文名:Viva Erotica
时 间:1996
地 区:中国香港
导 演:尔冬升 / 罗志良
编 剧:林庆隆 / 罗志良 / 尔冬升
类 型:剧情
主 演:张国荣,舒淇,徐锦江,莫文蔚
片 长:99 分钟
上 映:1996年11月28日
对 白:粤语 / 普通话
色 彩:彩色

影片评价:
单看片名,尔东升、罗志良合导的《色情男女》已够噱头,再看演员名单,张国荣、莫文蔚、刘青云、黄秋生、徐锦江、舒淇,本片讲述的又是落魄导演拍色情三级片的故事,观众怎能不感兴趣? 不过,本片可不是一般只想卖肉的三级片,它通过张国荣饰演的导演在转拍色情片过程中的内心挣扎,以及徐锦江和舒琪等三级片演员的个人心声,说明了“就算是拍成人片也可以认真从事把它拍好”的道理。因角色设计恰当,当时仍属“脱星”的舒琪表现出感人的演技,从此成功转型成为一线女星。
事实上,《色情男女》亦确有唯美养眼的裸体床戏镜头,不过,影片立意却绝非低俗,它颂扬的是电影人对艺术的执著追求。即便他们为了生存沦落到拍色情电影的地步,也不能放弃对艺术的追求。脱星舒淇就是受到《色情男女》的洗礼,从此走出三级窠臼,成为如今拍了很多文艺电影的演技红星。
《色情男女》是一部真诚的电影,它没有回避娱乐圈的种种丑事,但其立意却绝不止于此。颂扬电影人对艺术的执著追求,才应是该片最想传达的意念。舒淇因在影片中有出色的表演而荣获当年香港电影金象奖最佳女新人。

编码信息:
  1. General
  2. Unique ID                      : 184020770157773131792633905003485590681 (0x8A711C7537D2B1C1B1ADB70AB059F499)
  3. Format                         : Matroska
  4. Format version                 : Version 4 / Version 2
  5. File size                      : 2.83 GiB
  6. Duration                       : 1h 39mn
  7. Overall bit rate               : 4 071 Kbps
  8. Movie name                     : 色情男女 (Viva Erotica - 1996)
  9. Encoded date                   : UTC 2010-02-22 21:41:31
  10. Writing application            : mkvmerge v5.9.0 ('On The Loose') built on Dec  9 2012 15:37:01
  11. Writing library                : libebml v1.3.0 + libmatroska v1.4.0

  12. Video
  13. ID                             : 1
  14. Format                         : AVC
  15. Format/Info                    : Advanced Video Codec
  16. Format profile                 : Main@L3.1
  17. Format settings, CABAC         : Yes
  18. Format settings, ReFrames      : 4 frames
  19. Muxing mode                    : Header stripping
  20. Codec ID                       : V_MPEG4/ISO/AVC
  21. Duration                       : 1h 39mn
  22. Bit rate                       : 3 250 Kbps
  23. Width                          : 1 024 pixels
  24. Height                         : 576 pixels
  25. Display aspect ratio           : 16:9
  26. Frame rate mode                : Constant
  27. Frame rate                     : 29.970 fps
  28. Color space                    : YUV
  29. Chroma subsampling             : 4:2:0
  30. Bit depth                      : 8 bits
  31. Scan type                      : Progressive
  32. Bits/(Pixel*Frame)             : 0.184
  33. Stream size                    : 2.19 GiB (78%)
  34. Writing library                : x264 core 116 r2019 9cc407d
  35. Encoding settings              : cabac=1 / ref=3 / deblock=1:0:0 / analyse=0x1:0x111 / me=hex / subme=6 / psy=1 / psy_rd=1.00:0.00 / mixed_ref=1 / me_range=16 / chroma_me=1 / trellis=1 / 8x8dct=0 / cqm=0 / deadzone=21,11 / fast_pskip=1 / chroma_qp_offset=-2 / threads=3 / sliced_threads=0 / nr=0 / decimate=1 / interlaced=0 / bluray_compat=0 / constrained_intra=0 / bframes=3 / b_pyramid=2 / b_adapt=1 / b_bias=0 / direct=1 / weightb=1 / open_gop=0 / weightp=2 / keyint=250 / keyint_min=25 / scenecut=40 / intra_refresh=0 / rc_lookahead=40 / rc=abr / mbtree=1 / bitrate=3250 / ratetol=1.0 / qcomp=0.60 / qpmin=0 / qpmax=69 / qpstep=4 / vbv_maxrate=4000 / vbv_bufsize=800 / nal_hrd=none / ip_ratio=1.40 / aq=1:1.00
  36. Default                        : Yes
  37. Forced                         : No

  38. Audio #1
  39. ID                             : 2
  40. Format                         : AC-3
  41. Format/Info                    : Audio Coding 3
  42. Mode extension                 : CM (complete main)
  43. Format settings, Endianness    : Big
  44. Muxing mode                    : Header stripping
  45. Codec ID                       : A_AC3
  46. Duration                       : 1h 39mn
  47. Bit rate mode                  : Constant
  48. Bit rate                       : 448 Kbps
  49. Channel(s)                     : 6 channels
  50. Channel positions              : Front: L C R, Side: L R, LFE
  51. Sampling rate                  : 48.0 KHz
  52. Bit depth                      : 16 bits
  53. Compression mode               : Lossy
  54. Stream size                    : 318 MiB (11%)
  55. Title                          : 粤语
  56. Language                       : Chinese
  57. Default                        : Yes
  58. Forced                         : No

  59. Audio #2
  60. ID                             : 3
  61. Format                         : AC-3
  62. Format/Info                    : Audio Coding 3
  63. Mode extension                 : CM (complete main)
  64. Format settings, Endianness    : Big
  65. Muxing mode                    : Header stripping
  66. Codec ID                       : A_AC3
  67. Duration                       : 1h 39mn
  68. Bit rate mode                  : Constant
  69. Bit rate                       : 384 Kbps
  70. Channel(s)                     : 6 channels
  71. Channel positions              : Front: L C R, Side: L R, LFE
  72. Sampling rate                  : 48.0 KHz
  73. Bit depth                      : 16 bits
  74. Compression mode               : Lossy
  75. Stream size                    : 273 MiB (9%)
  76. Title                          : 国语
  77. Language                       : Chinese
  78. Default                        : No
  79. Forced                         : No

  80. Text #1
  81. ID                             : 4
  82. Format                         : VobSub
  83. Muxing mode                    : zlib
  84. Codec ID                       : S_VOBSUB
  85. Codec ID/Info                  : The same subtitle format used on DVDs
  86. Title                          : 繁体中文
  87. Language                       : Chinese
  88. Default                        : Yes
  89. Forced                         : No

  90. Text #2
  91. ID                             : 5
  92. Format                         : VobSub
  93. Muxing mode                    : zlib
  94. Codec ID                       : S_VOBSUB
  95. Codec ID/Info                  : The same subtitle format used on DVDs
  96. Title                          : 简体中文
  97. Language                       : Chinese
  98. Default                        : No
  99. Forced                         : No
复制代码


下载地址:
游客,如果您要查看本帖隐藏内容请回复

410

粉丝

240

关注

6038

微博
发表于 2015-1-6 15:57 | 显示全部楼层
很有heart得一部电影[good]

91

粉丝

148

关注

2424

微博
发表于 2015-1-6 17:31 | 显示全部楼层
不低俗,不媚俗

508

粉丝

252

关注

496

微博
发表于 2015-1-6 17:31 | 显示全部楼层
完整版吗?
发表于 2015-1-6 21:51 | 显示全部楼层
2.83G太好了!我好像就没有这么大的,多谢!!
发表于 2015-1-6 23:56 | 显示全部楼层
谢谢分享O(∩_∩)O~很喜欢这个电影呢!
发表于 2015-1-7 15:05 | 显示全部楼层
很想要 可惜没地方了~555
发表于 2015-1-7 16:39 | 显示全部楼层
这部电影找了很久很久很久,谢谢!!
发表于 2015-1-8 00:00 | 显示全部楼层
回复回复回复
发表于 2015-1-8 01:02 | 显示全部楼层
謝謝師兄分享﹗
发表于 2015-1-16 05:12 | 显示全部楼层
感谢分享~
发表于 2015-1-19 20:04 | 显示全部楼层
怎么下载 呀  一直想看哥哥的 这部大片呀
发表于 2015-1-20 10:23 (来自手机版) | 显示全部楼层
这个版本应该是目前最好的了,感谢。
发表于 2015-1-25 19:47 | 显示全部楼层
感謝!
发表于 2015-1-26 18:34 | 显示全部楼层
感谢分享!!
您需要登录后才可以回帖 登录 | 注册 新浪微博登陆

本版积分规则

手机客户端|小黑屋|Archiver|关于我们|联系方式| 荣光无限|沪ICP备09096540号-1

© 2002-2018 荣光无限 - 张国荣歌影迷网   版权所有

快速回复 返回顶部 返回列表