荣光无限论坛

找回密码
注册

QQ登录

搜索
热搜: 邀请 充值 邮箱
查看: 1361|回复: 21
收起左侧

[电影剧集] 2000. 枪王 (BDRip.720P) [3.2GB]

[复制链接]
发表于 2013-5-19 17:23 | 显示全部楼层 |阅读模式

马上注册,结交更多同道中人,享用更多功能,让你轻松融入哥迷大家庭。

您需要 登录 才可以下载或查看,没有帐号?注册

x
Double Tap.jpg

片 名:枪王
译 名:Double Tap
地 区:中国香港
上 映:2000年5月27日
类 别:剧情 / 动作 / 警匪
语 言:粤语 / 普通话
字 幕:中文
演 员:张国荣,方中信,谷德昭,黄卓玲
导 演:罗志良
监 制:尔冬升
编 剧:罗志良
故 事:尔冬升 / 张民光
画 面:1280 x 720
大 小:3.19 GB
片 长:01:33:59

剧情介绍:

Rick(张国荣饰)是一位热爱枪械和射击的人,他与他的朋友是IPSC(实用射击)的比赛高手,也是改枪的能 手。同时也认识了重案组的阿苗(方中信饰),Joe(张民光饰)鉴证科的 Vincent(谷德绍饰演)。在比赛场上,Rick 与阿苗相遇并认定彼此为对手,两人在赛场上不分高下,就在决胜的时刻,一名精神失常者(老余)闯入比赛中枪杀人群,Rick 及阿苗举起枪自卫,然而阿苗对于这个认识的人,却迟迟无法开枪。此时老余的枪已指向 Rick 的女朋友 Colleen,Rick 当场将老余杀死。Rick 首次用枪一尝杀人的的快感。
三年后,一间轰动警界的走私案件,四名G4特工和污点证人在酒店被杀,行凶者手法利落,5秒之内连发10枪,让警方大伤脑筋。而侦查本案的主管就是阿苗,由案发现场推断凶手应为当年的熟识 Rick。
搜查人员在 Rick 家搜出气枪,但并未到2焦耳(即不构成私藏枪支),但却被警方故意以私藏枪支罪抓住为 Rick 顶罪的女友 Colleen。48小时之后 Rick 被释放出来,阿苗等人只有眼睁睁看他离去。Rick 因为女友被扣押,公然挑战由阿苗为首的专案小组,并下战书如不在期限之内放出 Colleen,每日杀掉一名警察。时间已到,不断有警察被杀,直到 Joe 也在家中丧生。为了不再有无谓的牺牲,阿苗放走了 Colleen,更以自我生命为赌注,挑战 Rick 完成三年前未分出胜负的比赛,发誓要干掉 Rick。

编码信息:
  1.     General
  2.     Unique ID : 184148442217113963300712569604953060729 (0x8A89B32D28AE265DB4ED3C639B07B579)
  3.     Format : Matroska
  4.     Format version : Version 4 / Version 2
  5.     File size : 3.20 GiB
  6.     Duration : 1h 34mn
  7.     Overall bit rate : 4 866 Kbps
  8.     Movie name : 槍王
  9.     Encoded date : UTC 2010-02-22 21:41:31
  10.     Writing application : mkvmerge v5.9.0 ('On The Loose') built on Dec  9 2012 15:37:01
  11.     Writing library : libebml v1.3.0 + libmatroska v1.4.0

  12.     Video #1
  13.     ID : 1
  14.     Format : AVC
  15.     Format/Info : Advanced Video Codec
  16.     Format profile : High@L4.1
  17.     Format settings, CABAC : Yes
  18.     Format settings, ReFrames : 5 frames
  19.     Muxing mode : Header stripping
  20.     Codec ID : V_MPEG4/ISO/AVC
  21.     Duration : 1h 34mn
  22.     Bit rate : 3 587 Kbps
  23.     Width : 1 280 pixels
  24.     Height : 720 pixels
  25.     Display aspect ratio : 16:9
  26.     Frame rate mode : Constant
  27.     Frame rate : 24.000 fps
  28.     Color space : YUV
  29.     Chroma subsampling : 4:2:0
  30.     Bit depth : 8 bits
  31.     Scan type : Progressive
  32.     Bits/(Pixel*Frame) : 0.162
  33.     Stream size : 2.29 GiB (72%)
  34.     Writing library : x264 core 120 r2164 da19765
  35.     Encoding settings : cabac=1 / ref=5 / deblock=1:-1:-1 / analyse=0x3:0x113 / me=umh / subme=9 / psy=1 / psy_rd=1.00:0.00 / mixed_ref=1 / me_range=16 / chroma_me=1 / trellis=2 / 8x8dct=1 / cqm=0 / deadzone=21,11 / fast_pskip=1 / chroma_qp_offset=-2 / threads=12 / sliced_threads=0 / nr=0 / decimate=1 / interlaced=0 / bluray_compat=0 / constrained_intra=0 / bframes=3 / b_pyramid=2 / b_adapt=2 / b_bias=0 / direct=3 / weightb=1 / open_gop=0 / weightp=2 / keyint=240 / keyint_min=22 / scenecut=40 / intra_refresh=0 / rc_lookahead=50 / rc=2pass / mbtree=1 / bitrate=3587 / ratetol=1.0 / qcomp=0.60 / qpmin=10 / qpmax=59 / qpstep=4 / cplxblur=20.0 / qblur=0.5 / ip_ratio=1.40 / aq=1:1.00
  36.     Default : Yes
  37.     Forced : No

  38.     Audio #2
  39.     ID : 2
  40.     Format : AC-3
  41.     Format/Info : Audio Coding 3
  42.     Mode extension : CM (complete main)
  43.     Format settings, Endianness : Big
  44.     Muxing mode : Header stripping
  45.     Codec ID : A_AC3
  46.     Duration : 1h 34mn
  47.     Bit rate mode : Constant
  48.     Bit rate : 640 Kbps
  49.     Channel(s) : 6 channels
  50.     Channel positions : Front: L C R, Side: L R, LFE
  51.     Sampling rate : 48.0 KHz
  52.     Bit depth : 16 bits
  53.     Compression mode : Lossy
  54.     Stream size : 431 MiB (13%)
  55.     Title : 粤语原声
  56.     Language : Chinese
  57.     Default : Yes
  58.     Forced : No

  59.     Audio #3
  60.     ID : 3
  61.     Format : AC-3
  62.     Format/Info : Audio Coding 3
  63.     Mode extension : CM (complete main)
  64.     Format settings, Endianness : Big
  65.     Muxing mode : Header stripping
  66.     Codec ID : A_AC3
  67.     Duration : 1h 34mn
  68.     Bit rate mode : Constant
  69.     Bit rate : 640 Kbps
  70.     Channel(s) : 6 channels
  71.     Channel positions : Front: L C R, Side: L R, LFE
  72.     Sampling rate : 48.0 KHz
  73.     Bit depth : 16 bits
  74.     Compression mode : Lossy
  75.     Stream size : 431 MiB (13%)
  76.     Title : 国语配音
  77.     Language : Chinese
  78.     Default : No
  79.     Forced : No

  80.     Text #4
  81.     ID : 4
  82.     Format : UTF-8
  83.     Codec ID : S_TEXT/UTF8
  84.     Codec ID/Info : UTF-8 Plain Text
  85.     Title : 简体中文
  86.     Language : Chinese
  87.     Default : Yes
  88.     Forced : No

  89.     Text #5
  90.     ID : 5
  91.     Format : UTF-8
  92.     Codec ID : S_TEXT/UTF8
  93.     Codec ID/Info : UTF-8 Plain Text
  94.     Title : 繁體中文
  95.     Language : Chinese
  96.     Default : No
  97.     Forced : No
复制代码

下载地址:
游客,如果您要查看本帖隐藏内容请回复
发表于 2013-5-23 20:38 | 显示全部楼层
我有蓝光的哦。
发表于 2014-2-10 02:58 | 显示全部楼层
多谢资源╮(╯▽╰)╭超级喜欢这部电影~!收藏~
发表于 2014-9-6 18:20 | 显示全部楼层
有点贵,不过很值得。
发表于 2014-11-19 13:51 | 显示全部楼层
价格小贵了,支持
发表于 2015-1-8 01:48 | 显示全部楼层
謝謝師兄分享﹗
发表于 2015-2-8 21:11 | 显示全部楼层
多谢分享!!
发表于 2015-2-9 01:41 | 显示全部楼层
谢谢分享!!!
发表于 2015-3-14 11:40 | 显示全部楼层
枪王,只能说哥哥是唯一的亮点,什么戏里都出彩
发表于 2015-4-5 17:31 | 显示全部楼层
谢谢分享!
发表于 2015-4-5 17:31 | 显示全部楼层
谢谢分享!
发表于 2015-4-5 17:32 | 显示全部楼层
链接被吞。。打不开了。
发表于 2016-4-8 20:59 | 显示全部楼层
我觉得警察太讨厌了。。。三观为何不正....
发表于 2016-6-30 03:35 | 显示全部楼层
最爱的枪王w
发表于 2016-9-3 16:54 | 显示全部楼层
感谢楼主~~~~~~~~~~~~~~~~
您需要登录后才可以回帖 登录 | 注册

本版积分规则

手机客户端|小黑屋|Archiver|关于我们|联系方式| 荣光无限|沪ICP备09096540号-1

© 2002-2019 荣光无限 - 张国荣歌影迷网 版权所有

快速回复 返回顶部 返回列表