荣光无限论坛

找回密码
注册

QQ登录

新浪微博登陆

搜索
热搜: 邀请 充值 邮箱
查看: 1439|回复: 47
收起左侧

[电影剧集] 1996. 大三元 (DVDRip.香港三区) [2.5GB]

[复制链接]
发表于 2015-3-10 20:30 | 显示全部楼层 |阅读模式

马上注册,结交更多同道中人,享用更多功能,让你轻松融入哥迷大家庭。

您需要 登录 才可以下载或查看,没有帐号?注册 新浪微博登陆

x
《大三元》是于1996年上映的由徐克执导的一部香港电影。主要讲述了想要拯救迷途羔羊的年轻神父和遇上避债逃入教堂求救的妓女与追查卖淫集团的CID之间的一系列故事。

Tri-Star.jpg

中文名:大三元
外文名:Tri-Star
出 品:新艺城出品有限公司
发 行:东方电影发行有限公司
地 区:中国香港
导 演:徐克
编 剧:郑忠泰,徐克,陶云
制片人:周耀山
类 型:喜剧
主 演:张国荣,袁咏仪,刘青云,洪欣,陈锦鸿,江欣燕
片 长:108分钟
上 映:1996年02月15日
票 房:HK$25218,150
分 级:ⅡA
对 白:国语,粤语
色 彩:彩色

电影剧情
年轻神父钟国强遇上避债逃入教堂求救的妓女白雪花。为拯救这迷途羔羊,钟国强乔装迁入妓女分租的单位,CID刘青发为追查卖淫集团跟踪白。钟国强为众妓女找新工作,培养她们的音乐兴趣,更为她们与黑社会评理,发锲而不舍的追查,引起误会重重……发能否把卖淫集团一网打尽?妓女能否改邪归正?钟国强与白雪花日久生情,神父如何自处?

编码信息:
  1. General
  2. Unique ID                      : 236263308654301492089015221206442298773 (0xB1BEA8789196272488C78732554FCD95)
  3. Format                         : Matroska
  4. Format version                 : Version 4 / Version 2
  5. File size                      : 2.49 GiB
  6. Duration                       : 1h 47mn
  7. Overall bit rate               : 3 326 Kbps
  8. Movie name                     : 大三元 (1996)
  9. Encoded date                   : UTC 2010-02-22 21:41:31
  10. Writing application            : mkvmerge v5.9.0 ('On The Loose') built on Dec  9 2012 15:37:01
  11. Writing library                : libebml v1.3.0 + libmatroska v1.4.0

  12. Video
  13. ID                             : 1
  14. Format                         : AVC
  15. Format/Info                    : Advanced Video Codec
  16. Format profile                 : Main@L3.1
  17. Format settings, CABAC         : Yes
  18. Format settings, ReFrames      : 4 frames
  19. Muxing mode                    : Header stripping
  20. Codec ID                       : V_MPEG4/ISO/AVC
  21. Duration                       : 1h 47mn
  22. Bit rate                       : 2 560 Kbps
  23. Width                          : 1 024 pixels
  24. Height                         : 768 pixels
  25. Display aspect ratio           : 4:3
  26. Frame rate mode                : Constant
  27. Frame rate                     : 29.970 fps
  28. Color space                    : YUV
  29. Chroma subsampling             : 4:2:0
  30. Bit depth                      : 8 bits
  31. Scan type                      : Progressive
  32. Bits/(Pixel*Frame)             : 0.109
  33. Stream size                    : 1.87 GiB (75%)
  34. Writing library                : x264 core 116 r2019 9cc407d
  35. Encoding settings              : cabac=1 / ref=3 / deblock=1:0:0 / analyse=0x1:0x111 / me=hex / subme=6 / psy=1 / psy_rd=1.00:0.00 / mixed_ref=1 / me_range=16 / chroma_me=1 / trellis=1 / 8x8dct=0 / cqm=0 / deadzone=21,11 / fast_pskip=1 / chroma_qp_offset=-2 / threads=3 / sliced_threads=0 / nr=0 / decimate=1 / interlaced=0 / bluray_compat=0 / constrained_intra=0 / bframes=3 / b_pyramid=2 / b_adapt=1 / b_bias=0 / direct=1 / weightb=1 / open_gop=0 / weightp=2 / keyint=250 / keyint_min=25 / scenecut=40 / intra_refresh=0 / rc_lookahead=40 / rc=abr / mbtree=1 / bitrate=2560 / ratetol=1.0 / qcomp=0.60 / qpmin=0 / qpmax=69 / qpstep=4 / vbv_maxrate=3000 / vbv_bufsize=600 / nal_hrd=none / ip_ratio=1.40 / aq=1:1.00
  36. Default                        : Yes
  37. Forced                         : No

  38. Audio #1
  39. ID                             : 2
  40. Format                         : AC-3
  41. Format/Info                    : Audio Coding 3
  42. Mode extension                 : CM (complete main)
  43. Format settings, Endianness    : Big
  44. Muxing mode                    : Header stripping
  45. Codec ID                       : A_AC3
  46. Duration                       : 1h 47mn
  47. Bit rate mode                  : Constant
  48. Bit rate                       : 384 Kbps
  49. Channel(s)                     : 6 channels
  50. Channel positions              : Front: L C R, Side: L R, LFE
  51. Sampling rate                  : 48.0 KHz
  52. Bit depth                      : 16 bits
  53. Compression mode               : Lossy
  54. Stream size                    : 294 MiB (12%)
  55. Title                          : 粤语
  56. Language                       : Chinese
  57. Default                        : Yes
  58. Forced                         : No

  59. Audio #2
  60. ID                             : 3
  61. Format                         : AC-3
  62. Format/Info                    : Audio Coding 3
  63. Mode extension                 : CM (complete main)
  64. Format settings, Endianness    : Big
  65. Muxing mode                    : Header stripping
  66. Codec ID                       : A_AC3
  67. Duration                       : 1h 47mn
  68. Bit rate mode                  : Constant
  69. Bit rate                       : 384 Kbps
  70. Channel(s)                     : 6 channels
  71. Channel positions              : Front: L C R, Side: L R, LFE
  72. Sampling rate                  : 48.0 KHz
  73. Bit depth                      : 16 bits
  74. Compression mode               : Lossy
  75. Stream size                    : 294 MiB (12%)
  76. Title                          : 国语
  77. Language                       : Chinese
  78. Default                        : No
  79. Forced                         : No
复制代码

下载地址:
游客,如果您要查看本帖隐藏内容请回复


发表于 2015-3-10 20:45 | 显示全部楼层
感谢分享
发表于 2015-3-10 20:52 (来自手机版) | 显示全部楼层
好难得,这个必须有。
发表于 2015-3-10 21:29 | 显示全部楼层
谢谢坛主的分享,让更多荣迷收藏哥哥的电影!

48

粉丝

31

关注

63

微博
发表于 2015-3-10 22:19 | 显示全部楼层
能说正在看吗?能说吗?
发表于 2015-3-10 23:36 | 显示全部楼层
最帅神父~最帅神父

178

粉丝

298

关注

713

微博
发表于 2015-3-11 08:07 | 显示全部楼层
@浴火重生后只想做个安静的美男子

135

粉丝

221

关注

156

微博
发表于 2015-3-11 08:07 | 显示全部楼层
回复@90有余:mark
发表于 2015-3-11 08:08 | 显示全部楼层
谢谢分享~我会好好收藏的!
发表于 2015-3-11 15:54 | 显示全部楼层
最俊美的神父哥哥
发表于 2015-3-12 15:53 | 显示全部楼层
这个好
发表于 2015-3-12 16:23 | 显示全部楼层
感谢分享,谢谢分享啊
发表于 2015-3-13 00:06 | 显示全部楼层
这部戏的资源很少,好一些的更是稀缺,太感谢了
发表于 2015-3-15 19:08 | 显示全部楼层
感谢有心人的分享。
发表于 2015-3-16 00:14 | 显示全部楼层
找了好几年
您需要登录后才可以回帖 登录 | 注册 新浪微博登陆

本版积分规则

手机客户端|小黑屋|Archiver|关于我们|联系方式| 荣光无限|沪ICP备09096540号-1

© 2002-2018 荣光无限 - 张国荣歌影迷网   版权所有

快速回复 返回顶部 返回列表