荣光无限论坛

找回密码
注册

QQ登录

搜索
查看: 3330|回复: 51
收起左侧

[电影剧集] 1982. 烈火青春 (DVDRip.日本二区) [2.05GB]

[复制链接]
发表于 2015-03-18 16:56:59 | 显示全部楼层 |阅读模式

马上注册,结交更多同道中人,享用更多功能,让你轻松融入哥迷大家庭。

您需要 登录 才可以下载或查看,没有帐号?注册

x
nomad.jpg

电影片名:烈火青春
英文名称:The Nomad
导  演:谭家明、唐基明
编  剧:陈韵文,陈冠中,方令正,邱刚健,谭家明
主要演员:张国荣,夏文汐,汤镇业,叶童
影片类型:爱情 / 剧情
电影片长:96 min
国家地区:中国香港
对白语言:粤语 / 国语
字幕语言:繁体中文 / 简体中文
电影色彩:彩色
制作公司:世纪影业有限公司 Century Motion Picture & Dist. Co. Ltd. [香港]
上映日期:1982年11月26日 [中国香港]

剧情介绍:
上世纪八十年代初的香港,四个无所事事的青年结成死党,重复着寻找爱情寻找伙伴的青春游戏。他们细致而悠然地活着,城市的世俗与他们无关。他们的爱情中没有争执,没有嫉妒,没有困扰,情欲是唯一的主题——有何不可呢?谁说最原始的不是最单纯?当然,导演不会甘于沉溺在这样的虚无中,他还是要提醒你,肉体的欢愉背后,未尝不是危机暗涌。他们中的一对被象征着青春中无可挽回的失误的“赤军”杀死,而另一对则侥幸活了下来,去寻找梦想的符号:阿拉伯。

编码信息:
  1. General
  2. Unique ID                      : 207012589848171556041026741087409547234 (0x9BBD2CB050FF39DDBF6AA03E357827E2)
  3. Complete name                  : 1982. 烈火青春.DVDRip_2JP_704x472_3200.mkv
  4. Format                         : Matroska
  5. Format version                 : Version 4
  6. File size                      : 2.06 GiB
  7. Duration                       : 2 h 25 min
  8. Overall bit rate               : 2 021 kb/s
  9. Movie name                     : 烈火青春 Nomad [1982]
  10. Encoded date                   : UTC 2010-02-22 21:41:31
  11. Writing application            : mkvmerge v5.9.0 ('On The Loose') built on Dec  9 2012 15:37:01
  12. Writing library                : libebml v1.3.0 + libmatroska v1.4.0

  13. Video
  14. ID                             : 1
  15. Format                         : AVC
  16. Format/Info                    : Advanced Video Codec
  17. Format profile                 : High@L5.1
  18. Format settings                : CABAC / 5 Ref Frames
  19. Format settings, CABAC         : Yes
  20. Format settings, Reference fra : 5 frames
  21. Muxing mode                    : Header stripping
  22. Codec ID                       : V_MPEG4/ISO/AVC
  23. Duration                       : 2 h 25 min
  24. Bit rate                       : 1 212 kb/s
  25. Nominal bit rate               : 2 428 kb/s
  26. Width                          : 704 pixels
  27. Height                         : 472 pixels
  28. Display aspect ratio           : 16:9
  29. Original display aspect ratio  : 3:2
  30. Frame rate mode                : Constant
  31. Frame rate                     : 23.976 (24000/1001) FPS
  32. Color space                    : YUV
  33. Chroma subsampling             : 4:2:0
  34. Bit depth                      : 8 bits
  35. Scan type                      : Progressive
  36. Bits/(Pixel*Frame)             : 0.152
  37. Stream size                    : 1.23 GiB (60%)
  38. Writing library                : x264 core 58 r798M 17e5dac
  39. Encoding settings              : cabac=1 / ref=5 / deblock=1:-2:-1 / analyse=0x3:0x113 / me=umh / subme=6 / me-prepass=0 / brdo=1 / mixed_ref=1 / me_range=16 / chroma_me=1 / trellis=1 / 8x8dct=1 / cqm=0 / deadzone=21,11 / chroma_qp_offset=0 / threads=12 / nr=0 / decimate=1 / mbaff=0 / bframes=16 / b_pyramid=1 / b_adapt=1 / b_bias=0 / direct=3 / wpredb=1 / bime=1 / keyint=250 / keyint_min=25 / scenecut=40(pre) / rc=2pass / bitrate=2428 / ratetol=1.0 / rceq='blurCplx^(1-qComp)' / qcomp=1.00 / qpmin=10 / qpmax=51 / qpstep=4 / cplxblur=20.0 / qblur=0.5 / ip_ratio=1.40 / pb_ratio=1.30 / aq=1:0.5:13.0
  40. Default                        : Yes
  41. Forced                         : No
  42. Duration_Source                : General_Duration

  43. Audio #1
  44. ID                             : 2
  45. Format                         : AC-3
  46. Format/Info                    : Audio Coding 3
  47. Commercial name                : Dolby Digital
  48. Muxing mode                    : Header stripping
  49. Codec ID                       : A_AC3
  50. Duration                       : 2 h 25 min
  51. Bit rate mode                  : Constant
  52. Bit rate                       : 384 kb/s
  53. Channel(s)                     : 6 channels
  54. Channel layout                 : L R C LFE Ls Rs
  55. Sampling rate                  : 48.0 kHz
  56. Frame rate                     : 31.250 FPS (1536 SPF)
  57. Compression mode               : Lossy
  58. Stream size                    : 400 MiB (19%)
  59. Title                          : 粤语
  60. Language                       : Chinese
  61. Service kind                   : Complete Main
  62. Default                        : Yes
  63. Forced                         : No
  64. Duration_Source                : General_Duration

  65. Audio #2
  66. ID                             : 3
  67. Format                         : AC-3
  68. Format/Info                    : Audio Coding 3
  69. Commercial name                : Dolby Digital
  70. Muxing mode                    : Header stripping
  71. Codec ID                       : A_AC3
  72. Duration                       : 2 h 25 min
  73. Bit rate mode                  : Constant
  74. Bit rate                       : 384 kb/s
  75. Channel(s)                     : 6 channels
  76. Channel layout                 : L R C LFE Ls Rs
  77. Sampling rate                  : 48.0 kHz
  78. Frame rate                     : 31.250 FPS (1536 SPF)
  79. Compression mode               : Lossy
  80. Stream size                    : 400 MiB (19%)
  81. Title                          : 国语
  82. Language                       : Chinese
  83. Service kind                   : Complete Main
  84. Default                        : No
  85. Forced                         : No
  86. Duration_Source                : General_Duration

  87. Text #1
  88. ID                             : 4
  89. Format                         : VobSub
  90. Muxing mode                    : zlib
  91. Codec ID                       : S_VOBSUB
  92. Codec ID/Info                  : Picture based subtitle format used on DVDs
  93. Title                          : 繁體中文
  94. Language                       : Chinese
  95. Default                        : Yes
  96. Forced                         : No

  97. Text #2
  98. ID                             : 5
  99. Format                         : VobSub
  100. Muxing mode                    : zlib
  101. Codec ID                       : S_VOBSUB
  102. Codec ID/Info                  : Picture based subtitle format used on DVDs
  103. Title                          : 简体中文
  104. Language                       : Chinese
  105. Default                        : No
  106. Forced                         : No
复制代码

下载地址:
游客,如果您要查看本帖隐藏内容请回复





发表于 2015-03-18 18:54:59 | 显示全部楼层
谢谢分享
据说日版的多了三四分钟镜头,看看。
发表于 2015-03-18 18:13:02 | 显示全部楼层
谢谢坛主坚持上传哥哥的电影,大爱!!!
发表于 2015-03-19 09:23:20 | 显示全部楼层
俺又来收藏宝贝资源了~谢谢分享!
发表于 2015-03-18 17:13:01 (来自手机版) | 显示全部楼层
……………………~
发表于 2015-03-18 17:13:35 | 显示全部楼层
谢谢分享!
发表于 2015-03-18 17:14:53 (来自手机版) | 显示全部楼层
很喜歡這部戲
发表于 2015-03-18 18:52:50 | 显示全部楼层
谢谢这么高清的资源分享![心]
发表于 2015-03-18 21:14:39 | 显示全部楼层
[心]//@Leslie_心跳呼吸正常: //@小城_故事a:转发微博
发表于 2015-03-18 23:41:06 | 显示全部楼层
太帅[心]
发表于 2015-03-19 18:21:47 | 显示全部楼层
年輕哥哥........
发表于 2015-03-19 18:22:42 | 显示全部楼层
年輕哥哥.....
发表于 2015-03-19 23:53:48 | 显示全部楼层
哥哥演技开始成熟的起点。
发表于 2015-03-20 15:42:36 | 显示全部楼层
谢谢分享!!!
发表于 2015-04-05 17:20:25 | 显示全部楼层
谢谢分享!
您需要登录后才可以回帖 登录 | 注册

本版积分规则

| 手机客户端|小黑屋|Archiver|关于我们|联系方式| 荣光无限|沪ICP备09096540号-1

© 2002-2020  荣光无限 - 张国荣歌影迷网  版权所有

快速回复 返回顶部 返回列表