荣光无限论坛

找回密码
注册

QQ登录

只需一步,快速开始

搜索
查看: 9046|回复: 60
收起左侧

1981. 失业生 (DVDRip.香港三区) [1.79GB]

[复制链接]
发表于 2015-01-24 23:53:55 | 显示全部楼层 |阅读模式
香港电影《失业生》由创艺影业公司于1981年出品。该片由霍耀良执导,陈百强、张国荣、徐杰、邝美宝、钟保罗、黄恺欣等领衔主演。
当年人称“三剑客”的三位男演员——陈百强、张国荣、钟保罗都在本片出演。

On Trial.jpg

中文名:失业生
外文名:On Trial
时 间:1981年
出 品:创艺影业公司
发 行:富城影片发行有限公司
地 区:中国香港
导 演:霍耀良
编 剧:海滴
制片人:刘盛
类 型:剧情,励志 ,青春
主 演:陈百强,张国荣,徐杰,邝美宝,钟保罗,黄恺欣
片 长:96分钟
上 映:1981年8月26日
对 白:粤语
字 幕:简体中文
色 彩:彩色

电影剧情:
性格内敛的孔家宝出生在一个富裕的家庭里,与贪玩的弟弟孔家辉(保罗)不同,他是一个凡事都不用父母操心的乖乖仔,并且酷爱音乐,只要有空余时间,他必定一心一意地陶醉在音乐的世界中。但这一切随着家宝的转学,发生了微妙的变化。在新的学校里,家宝认识了许多性格开朗的朋友,其中包括也包括玩世不恭的同学林志荣(荣少)。荣少是个贫穷的、成绩很差的学生,在很小的时候就被父亲抛弃,一直和母亲及两个妹妹生活在一起。荣少很好面子,不想让同学知道自己的窘境,一直以谎言面对大家。
在学校里荣少仗义的个性让家宝很欣赏,而荣少也对这个性格古怪、但执著地追求着自己梦想的同学颇有好感,二人成为了好朋友。时间过得飞快,很快高中毕业了,大家都面对着命运的十字路口。家宝一心想靠意大利的音乐学院却遭到了家人的反对,父亲认为学音乐是不务正业,认为他应该像弟弟保罗那样学习工商管理,以后才会有出息。家宝一气之下离家出走,应聘到一家唱片公司工作,发誓要靠自己成就一番事业。
而一直胸无大志的荣少此时也面临着命运的窘境,由于家庭贫困,他不得不和母亲一样去看厕所赚钱。而这一切恰巧被家宝发现了真相,爱面子的荣少却一厢情愿的认为家宝是想挖苦他、嘲笑他!于是他只丢下了句:“除非将来我发达了,否则永不会见你!”便决然地斩断了这段美好的友谊!然而,他却误入歧途,生活越发地放荡形骸。直到他遇到了一样不幸的妓女美宝后,生活才发生了变化。荣少帮助美宝重新做人,二人相爱,哪知美宝却一直摆脱不掉过去的阴影。
功夫不负有心人,家宝的才华很快被唱片公司的人发现了,并被艺术总监大赞为天才。公司决定破例让他出演不久以后的慈善音乐会,家宝得知这个消息以后非常开心,觉得自己不懈的追求终于没有白费,并决定邀请荣少参加音乐会,想借此机会与荣少和好。
在慈善音乐会上,家宝不仅表演获得成功,更获得了父母的理解和支持以及与荣少的友谊。美宝打算离开香港这块伤心地,远赴美国,并与荣少告别。荣少心有不舍,但也尊重美宝的想法,并答应她在今后的生活中一定努力做人。

编码信息:
  1. General
  2. Unique ID                      : 251740403413991018214353206513471229955 (0xBD637028492B63C8A3FA9D0ABBA69003)
  3. Format                         : Matroska
  4. Format version                 : Version 4 / Version 2
  5. File size                      : 1.80 GiB
  6. Duration                       : 1h 35mn
  7. Overall bit rate               : 2 708 Kbps
  8. Movie name                     : 失業生 (1981)
  9. Encoded date                   : UTC 2010-02-22 21:41:31
  10. Writing application            : mkvmerge v5.9.0 ('On The Loose') built on Dec  9 2012 15:37:01
  11. Writing library                : libebml v1.3.0 + libmatroska v1.4.0

  12. Video
  13. ID                             : 1
  14. Format                         : AVC
  15. Format/Info                    : Advanced Video Codec
  16. Format profile                 : Main@L3.1
  17. Format settings, CABAC         : Yes
  18. Format settings, ReFrames      : 4 frames
  19. Muxing mode                    : Header stripping
  20. Codec ID                       : V_MPEG4/ISO/AVC
  21. Duration                       : 1h 35mn
  22. Bit rate                       : 2 530 Kbps
  23. Width                          : 1 024 pixels
  24. Height                         : 576 pixels
  25. Display aspect ratio           : 16:9
  26. Original display aspect ratio  : 16:9
  27. Frame rate mode                : Constant
  28. Frame rate                     : 29.970 fps
  29. Color space                    : YUV
  30. Chroma subsampling             : 4:2:0
  31. Bit depth                      : 8 bits
  32. Scan type                      : Progressive
  33. Bits/(Pixel*Frame)             : 0.143
  34. Stream size                    : 1.63 GiB (91%)
  35. Writing library                : x264 core 116 r2019 9cc407d
  36. Encoding settings              : cabac=1 / ref=3 / deblock=1:0:0 / analyse=0x1:0x111 / me=hex / subme=6 / psy=1 / psy_rd=1.00:0.00 / mixed_ref=1 / me_range=16 / chroma_me=1 / trellis=1 / 8x8dct=0 / cqm=0 / deadzone=21,11 / fast_pskip=1 / chroma_qp_offset=-2 / threads=3 / sliced_threads=0 / nr=0 / decimate=1 / interlaced=0 / bluray_compat=0 / constrained_intra=0 / bframes=3 / b_pyramid=2 / b_adapt=1 / b_bias=0 / direct=1 / weightb=1 / open_gop=0 / weightp=2 / keyint=250 / keyint_min=25 / scenecut=40 / intra_refresh=0 / rc_lookahead=40 / rc=abr / mbtree=1 / bitrate=2530 / ratetol=1.0 / qcomp=0.60 / qpmin=0 / qpmax=69 / qpstep=4 / vbv_maxrate=3000 / vbv_bufsize=600 / nal_hrd=none / ip_ratio=1.40 / aq=1:1.00
  37. Default                        : Yes
  38. Forced                         : No

  39. Audio
  40. ID                             : 2
  41. Format                         : AC-3
  42. Format/Info                    : Audio Coding 3
  43. Mode extension                 : CM (complete main)
  44. Format settings, Endianness    : Big
  45. Muxing mode                    : Header stripping
  46. Codec ID                       : A_AC3
  47. Duration                       : 1h 35mn
  48. Bit rate mode                  : Constant
  49. Bit rate                       : 192 Kbps
  50. Channel(s)                     : 2 channels
  51. Channel positions              : Front: L R
  52. Sampling rate                  : 48.0 KHz
  53. Bit depth                      : 16 bits
  54. Compression mode               : Lossy
  55. Stream size                    : 131 MiB (7%)
  56. Language                       : Chinese
  57. Default                        : Yes
  58. Forced                         : No

  59. Text
  60. ID                             : 3
  61. Format                         : UTF-8
  62. Codec ID                       : S_TEXT/UTF8
  63. Codec ID/Info                  : UTF-8 Plain Text
  64. Language                       : Chinese
  65. Default                        : Yes
  66. Forced                         : No
复制代码

下载地址:
链接:https://pan.baidu.com/s/1mhBdsRQ  
游客,如果您要查看本帖隐藏内容请回复

发表于 2015-01-28 09:16:29 | 显示全部楼层
谢谢楼主~听说这个电影~还有第2结局版本~不知道可否给资源呢?谢谢哈!
发表于 2015-01-27 12:41:38 | 显示全部楼层
感谢分享!荣少这称呼似乎就从这部电影来的吧
发表于 2015-01-25 00:37:53 | 显示全部楼层
当年的三个白衣少年,谢谢分享资源
发表于 2015-01-25 00:07:39 | 显示全部楼层
最近好多资源啊~好赞!
发表于 2015-01-25 19:35:55 | 显示全部楼层
中環三太子??
发表于 2015-01-25 19:37:15 | 显示全部楼层
感謝分享
发表于 2015-01-26 18:15:00 | 显示全部楼层
找了好久!!谢谢楼主!!
发表于 2015-01-31 12:53:19 | 显示全部楼层
一直想找好一点的版本,太感谢了
发表于 2015-02-09 02:45:23 | 显示全部楼层
谢谢分享!!!
发表于 2015-02-12 19:44:11 | 显示全部楼层
谢谢分享!!
发表于 2015-02-17 11:48:46 | 显示全部楼层
当年的翩翩少年
发表于 2015-02-17 23:18:03 | 显示全部楼层
感谢分享。
发表于 2015-02-20 21:27:54 | 显示全部楼层
多谢分享好资源!
发表于 2015-03-05 19:37:39 | 显示全部楼层
这部电影从来没看过
您需要登录后才可以回帖 登录 | 注册

本版积分规则

快速回复 返回顶部 返回列表