荣光无限论坛

找回密码
注册

QQ登录

搜索
查看: 2138|回复: 44
收起左侧

[电影剧集] 1995. 金玉满堂 (DVDRip.法国二区) [2.23GB]

[复制链接]
发表于 2015-01-13 21:42:36 | 显示全部楼层 |阅读模式

马上注册,结交更多同道中人,享用更多功能,让你轻松融入哥迷大家庭。

您需要 登录 才可以下载或查看,没有帐号?注册

x
《金玉满堂》是由徐克执导,张国荣、袁咏仪、钟镇涛主演的喜剧电影。
电影讲述了赵港生与满汉楼老板的女儿嘉惠相爱,两人一同请到名厨廖杰出山,在“满汉全席”大赛上三人同心协力,取得了比赛的胜利。1995年该片在中国内地和中国香港上映。
这个版本是法国二区导演重剪的修复版,比港版时长多六分钟左右。

The_Chinese_Feast.jpg

中文名:金玉满堂,满汉全席
外文名:The Chinese Feast
地 区:中国香港
导 演:徐克
编 剧:郑忠泰,吴文辉,徐克,阮继志
制片人:黄百鸣
类 型:烹饪、爱情、喜剧
主 演:张国荣,袁咏仪,钟镇涛,赵文卓,罗家英,倪淑君,熊欣欣
片 长:106分钟(法国二区)
上 映:1995年
分 级:France: U / Hong Kong: II
对 白:粤语/普通话
色 彩:彩色
imdb编码:tt0113475

剧情简介:
赵港生(张国荣饰)因厌烦黑社会生活,欲金盆洗手后去加拿大追寻偶像山口百惠,而他选择的移民途径竟是——参加加拿大酒店的厨师考试,丝毫不懂厨艺的他最终因作弊暴露而惨败。
某日,赵港生在酒楼遇见了厨艺大师龙昆宝(赵文卓饰),龙昆宝指点他去找自己的旧识满汉楼的欧老板(罗家英饰)学习,不想欧老板竟对他百般刁难,最终将其扫地出门。其间,港生和欧老板的女儿嘉惠(袁咏仪饰)倒是在不经意间擦出了花火。
欧老板师承中国著名大宴满汉全席之赵派,某日,牛派的继承人黄荣找上门来挑战,后来又使诡计挖走了他手下的所有师傅。这时,唯有港生挺身而出,和嘉惠一起寻找会做满汉全席的高人,那就是五年前莫名隐退厨艺界的廖杰(钟镇涛饰) 。

编码信息:
  1. General
  2. Unique ID                      : 239613157213905477419445516875385914545 (0xB443D0C1A45B4142BC9E2B3E149DC4B1)
  3. Format                         : Matroska
  4. Format version                 : Version 4 / Version 2
  5. File size                      : 2.24 GiB
  6. Duration                       : 1h 45mn
  7. Overall bit rate               : 3 038 Kbps
  8. Movie name                     : 金玉滿堂 (1995)
  9. Encoded date                   : UTC 2010-02-22 21:41:31
  10. Writing application            : mkvmerge v5.9.0 ('On The Loose') built on Dec  9 2012 15:37:01
  11. Writing library                : libebml v1.3.0 + libmatroska v1.4.0

  12. Video
  13. ID                             : 1
  14. Format                         : AVC
  15. Format/Info                    : Advanced Video Codec
  16. Format profile                 : Main@L3.1
  17. Format settings, CABAC         : Yes
  18. Format settings, ReFrames      : 4 frames
  19. Muxing mode                    : Header stripping
  20. Codec ID                       : V_MPEG4/ISO/AVC
  21. Duration                       : 1h 45mn
  22. Bit rate                       : 2 660 Kbps
  23. Width                          : 1 280 pixels
  24. Height                         : 720 pixels
  25. Display aspect ratio           : 16:9
  26. Frame rate mode                : Constant
  27. Frame rate                     : 25.000 fps
  28. Color space                    : YUV
  29. Chroma subsampling             : 4:2:0
  30. Bit depth                      : 8 bits
  31. Scan type                      : Progressive
  32. Bits/(Pixel*Frame)             : 0.115
  33. Stream size                    : 1.91 GiB (85%)
  34. Writing library                : x264 core 116 r2019 9cc407d
  35. Encoding settings              : cabac=1 / ref=3 / deblock=1:0:0 / analyse=0x1:0x111 / me=hex / subme=6 / psy=1 / psy_rd=1.00:0.00 / mixed_ref=1 / me_range=16 / chroma_me=1 / trellis=1 / 8x8dct=0 / cqm=0 / deadzone=21,11 / fast_pskip=1 / chroma_qp_offset=-2 / threads=3 / sliced_threads=0 / nr=0 / decimate=1 / interlaced=0 / bluray_compat=0 / constrained_intra=0 / bframes=3 / b_pyramid=2 / b_adapt=1 / b_bias=0 / direct=1 / weightb=1 / open_gop=0 / weightp=2 / keyint=250 / keyint_min=25 / scenecut=40 / intra_refresh=0 / rc_lookahead=40 / rc=abr / mbtree=1 / bitrate=2660 / ratetol=1.0 / qcomp=0.60 / qpmin=0 / qpmax=69 / qpstep=4 / vbv_maxrate=3000 / vbv_bufsize=600 / nal_hrd=none / ip_ratio=1.40 / aq=1:1.00
  36. Default                        : Yes
  37. Forced                         : No

  38. Audio #1
  39. ID                             : 2
  40. Format                         : AC-3
  41. Format/Info                    : Audio Coding 3
  42. Format profile                 : Dolby Digital
  43. Mode extension                 : CM (complete main)
  44. Format settings, Endianness    : Big
  45. Muxing mode                    : Header stripping
  46. Codec ID                       : A_AC3
  47. Duration                       : 1h 45mn
  48. Bit rate mode                  : Constant
  49. Bit rate                       : 192 Kbps
  50. Channel(s)                     : 2 channels
  51. Channel positions              : Front: L R
  52. Sampling rate                  : 48.0 KHz
  53. Bit depth                      : 16 bits
  54. Compression mode               : Lossy
  55. Stream size                    : 145 MiB (6%)
  56. Title                          : 粤语
  57. Language                       : Chinese
  58. Default                        : Yes
  59. Forced                         : No

  60. Audio #2
  61. ID                             : 3
  62. Format                         : AC-3
  63. Format/Info                    : Audio Coding 3
  64. Mode extension                 : CM (complete main)
  65. Format settings, Endianness    : Big
  66. Muxing mode                    : Header stripping
  67. Codec ID                       : A_AC3
  68. Duration                       : 1h 45mn
  69. Bit rate mode                  : Constant
  70. Bit rate                       : 192 Kbps
  71. Channel(s)                     : 2 channels
  72. Channel positions              : Front: L R
  73. Sampling rate                  : 48.0 KHz
  74. Bit depth                      : 16 bits
  75. Compression mode               : Lossy
  76. Stream size                    : 145 MiB (6%)
  77. Title                          : 国语
  78. Language                       : Chinese
  79. Default                        : No
  80. Forced                         : No

  81. Text
  82. ID                             : 4
  83. Format                         : VobSub
  84. Muxing mode                    : zlib
  85. Codec ID                       : S_VOBSUB
  86. Codec ID/Info                  : The same subtitle format used on DVDs
  87. Language                       : Chinese
  88. Default                        : Yes
  89. Forced                         : No
复制代码


下载地址:
游客,如果您要查看本帖隐藏内容请回复
发表于 2015-04-16 20:37:47 | 显示全部楼层
除了东成西就之外,最爱的另一部喜剧,美食和爱,无比美好
发表于 2015-02-21 18:40:34 (来自手机版) | 显示全部楼层
谢谢楼主,这是我最喜欢哥哥的一部喜剧片
发表于 2015-01-26 15:04:46 | 显示全部楼层
哈哈哈特别喜欢哥哥和靓靓对戏,超有爱
发表于 2015-01-15 00:39:34 | 显示全部楼层
多谢楼主分享楼主辛苦了
发表于 2015-01-16 10:37:01 | 显示全部楼层
谢谢~谢谢~应该是超级完整版吧`!
发表于 2015-01-20 14:31:03 | 显示全部楼层
完整版才有收藏价值,感谢。
发表于 2015-01-22 22:13:40 | 显示全部楼层
全部都要,支持啦。
发表于 2015-01-23 01:02:47 | 显示全部楼层
多谢分享!!!
发表于 2015-01-25 00:18:40 | 显示全部楼层
多谢分享!
发表于 2015-01-25 00:19:31 | 显示全部楼层
多谢分享!
发表于 2015-01-25 20:28:18 | 显示全部楼层
加长版呀!
发表于 2015-02-02 16:48:56 | 显示全部楼层
怎么看呐[悲伤]
发表于 2015-02-02 16:50:16 | 显示全部楼层
才发现,幸好没错过
发表于 2015-02-10 21:53:58 | 显示全部楼层
谢谢分享!
发表于 2015-02-14 21:04:54 | 显示全部楼层
小时候看过,对猴脑那段印象深刻。
发表于 2015-02-20 14:45:37 | 显示全部楼层
赵港生
您需要登录后才可以回帖 登录 | 注册

本版积分规则

| 手机客户端|小黑屋|Archiver|关于我们|联系方式| 荣光无限|沪ICP备09096540号-1

© 2002-2020  荣光无限 - 张国荣歌影迷网  版权所有

快速回复 返回顶部 返回列表