荣光无限论坛

找回密码
注册

QQ登录

搜索
查看: 1217|回复: 29
收起左侧

[电影剧集] 1998. 红色恋人 (HDTV.720P) [2.3GB]

[复制链接]
发表于 2014-04-16 14:46:09 | 显示全部楼层 |阅读模式

马上注册,结交更多同道中人,享用更多功能,让你轻松融入哥迷大家庭。

您需要 登录 才可以下载或查看,没有帐号?注册

x
A Time to Remember.jpg

中文片名:红色恋人
英文片名:A Time to Remember

出品公司:北京紫禁城影业公司
制片地区:中国
导  演:叶大鹰
编  剧:江奇涛 / Mark Adam Kaplan / Andee Nathanson
主  演:张国荣,梅婷
片  长:100分钟
上映时间:1998年
色  彩:彩色
票房成绩:2500万元,年度票房冠军

故事简介:
在佩恩苍老的叙述声中,观众被带回到三十年代的上海。
在三十年代的上海,英租界豪华的酒吧里,佩恩结识了秋秋与靳,并且对秋秋一见钟情,但他并不知道自己已逐渐陷入危险的情境。
靳是共产党在上海地下组织的高层领导,为了掩护他的身份,秋秋接受了以“假夫妻”为名协助靳留在上海继续工作的任务。靳在以往的战斗生涯中屡受重伤,残留在他颅内的弹片致使他患有间歇性狂躁症并产生幻觉,自从有了秋秋之后,每每在他犯病后的幻觉中,他便把秋秋当做多年前为掩护他牺牲了的妻子。
秋秋年幼时曾亲眼目睹生父皓明变节后在刑场上枪杀自己的同志,她心灵受到极大的摧残。母亲偷偷地把她送到教会学校后自杀了。这一切注定了秋秋的悲剧命运。
在与靳朝夕相处的过程中,靳的勇敢、智慧和风采强烈地吸引了秋秋,她爱上了靳。靳在病态幻觉中视秋秋为前妻,秋秋在体验着这梦幻中的情爱的同时,也被靳浪漫与坚贞的爱情震撼,她愿为靳付出一切。
佩恩最初不理解秋秋与靳的情感,后被感动,决心帮助这对恋人。

秋秋在意外的情况下被捕,设下圈套的正是她的生父。秋秋在父亲安排的公众聚会上亲手击毙了他,从此身陷囹圄,此时她已怀有身孕。
靳终于悟到了秋秋对她的一往情深,决定以自身去交换秋秋。国民党当局杀害了靳,秋秋也因难产而死。
佩恩领养了靳和秋秋的女儿――明珠。1950年,佩恩返回美国,明珠在中国长大。1990年,明珠赴美国帮助养父佩恩撰写回忆录,书名为《红色恋人》。

编码信息:
  1. General
  2. Unique ID                      : 244570966362969800133776825726350729090 (0xB7FEA79EA7674949B532E39783791F82)
  3. Format                         : Matroska
  4. Format version                 : Version 4 / Version 2
  5. File size                      : 2.30 GiB
  6. Duration                       : 1h 35mn
  7. Overall bit rate               : 3 453 Kbps
  8. Movie name                     : 红色恋人 (1998)
  9. Encoded date                   : UTC 2010-02-22 21:41:31
  10. Writing application            : mkvmerge v5.9.0 ('On The Loose') built on Dec  9 2012 15:37:01
  11. Writing library                : libebml v1.3.0 + libmatroska v1.4.0

  12. Video
  13. ID                             : 1
  14. Format                         : AVC
  15. Format/Info                    : Advanced Video Codec
  16. Format profile                 : High@L4.1
  17. Format settings, CABAC         : Yes
  18. Format settings, ReFrames      : 9 frames
  19. Muxing mode                    : Header stripping
  20. Codec ID                       : V_MPEG4/ISO/AVC
  21. Duration                       : 1h 35mn
  22. Bit rate                       : 3 004 Kbps
  23. Width                          : 1 280 pixels
  24. Height                         : 720 pixels
  25. Display aspect ratio           : 16:9
  26. Frame rate mode                : Constant
  27. Frame rate                     : 25.000 fps
  28. Color space                    : YUV
  29. Chroma subsampling             : 4:2:0
  30. Bit depth                      : 8 bits
  31. Scan type                      : Progressive
  32. Bits/(Pixel*Frame)             : 0.130
  33. Stream size                    : 1.96 GiB (85%)
  34. Writing library                : x264 core 133 r2334 a3ac64b
  35. Encoding settings              : cabac=1 / ref=9 / deblock=1:-3:-3 / analyse=0x3:0x133 / me=umh / subme=10 / psy=1 / psy_rd=1.00:0.15 / mixed_ref=1 / me_range=32 / chroma_me=1 / trellis=2 / 8x8dct=1 / cqm=0 / deadzone=21,11 / fast_pskip=0 / chroma_qp_offset=-3 / threads=12 / lookahead_threads=1 / sliced_threads=0 / nr=0 / decimate=1 / interlaced=0 / bluray_compat=0 / constrained_intra=0 / bframes=6 / b_pyramid=2 / b_adapt=2 / b_bias=0 / direct=3 / weightb=1 / open_gop=0 / weightp=2 / keyint=240 / keyint_min=24 / scenecut=40 / intra_refresh=0 / rc_lookahead=60 / rc=2pass / mbtree=1 / bitrate=3004 / ratetol=1.0 / qcomp=0.60 / qpmin=10 / qpmax=51 / qpstep=4 / cplxblur=20.0 / qblur=0.5 / ip_ratio=1.40 / aq=1:1.00
  36. Default                        : Yes
  37. Forced                         : No

  38. Audio
  39. ID                             : 2
  40. Format                         : AC-3
  41. Format/Info                    : Audio Coding 3
  42. Mode extension                 : CM (complete main)
  43. Format settings, Endianness    : Big
  44. Muxing mode                    : Header stripping
  45. Codec ID                       : A_AC3
  46. Duration                       : 1h 35mn
  47. Bit rate mode                  : Constant
  48. Bit rate                       : 448 Kbps
  49. Channel(s)                     : 6 channels
  50. Channel positions              : Front: L C R, Side: L R, LFE
  51. Sampling rate                  : 48.0 KHz
  52. Bit depth                      : 16 bits
  53. Compression mode               : Lossy
  54. Stream size                    : 306 MiB (13%)
  55. Language                       : Chinese
  56. Default                        : Yes
  57. Forced                         : No
复制代码

下载地址:
游客,如果您要查看本帖隐藏内容请回复
发表于 2014-09-03 00:57:06 | 显示全部楼层
這部戲一直沒什麼好資源,這應該是能找到最好的了,感謝。
发表于 2014-07-14 22:00:04 | 显示全部楼层
在网上找了好久都找不到高清版的红色恋人
发表于 2014-08-14 22:34:47 | 显示全部楼层

呵呵,看看和我收藏的版本一样不
发表于 2014-04-21 14:48:35 | 显示全部楼层
老大,怎么下载失败了。。。

点评

现在可以了  发表于 2014-04-21 20:34
发表于 2015-02-08 21:08:38 | 显示全部楼层
很喜欢这部电影。多谢分享!
发表于 2015-02-09 01:42:20 | 显示全部楼层
谢谢分享!!!
发表于 2015-02-13 21:52:20 | 显示全部楼层
谢谢分享!!!
发表于 2015-04-05 17:35:29 | 显示全部楼层
谢谢分享!
发表于 2015-04-05 17:35:55 | 显示全部楼层
链接打不开。。
发表于 2015-04-14 22:25:07 | 显示全部楼层
此片很经典的,红色片
发表于 2015-05-17 23:29:05 | 显示全部楼层
看看,谢谢楼主分享!
发表于 2015-07-04 16:50:46 | 显示全部楼层
链接又打不开了TAT 楼主能否重新传一下
发表于 2015-08-10 17:15:00 | 显示全部楼层
多谢
发表于 2016-03-22 15:52:45 | 显示全部楼层
谢谢,辛苦了。
您需要登录后才可以回帖 登录 | 注册

本版积分规则

| 手机客户端|小黑屋|Archiver|关于我们|联系方式| 荣光无限|沪ICP备09096540号-1

© 2002-2020  荣光无限 - 张国荣歌影迷网  版权所有

快速回复 返回顶部 返回列表