荣光无限论坛

找回密码
注册

QQ登录

只需一步,快速开始

搜索
查看: 4057|回复: 8
收起左侧

2004. 叶倩文25周年金曲演唱会 (DVDRip.x264.DTS)

[复制链接]
发表于 2013-06-19 22:06:58 | 显示全部楼层 |阅读模式
七年磨剑,叶倩文于2004年3月25日起在香港红馆为纪念入行25载举办了“25周年金曲演唱会”。璀璨灯光,迷人舞台; Sally 为乐迷娓娓唱出入行25年来的金曲;成名作"零时十分"、电影主题曲"焚身以火"、"黎明不要来"以及重回乐坛的获奖新作"女人的弱点"、"华丽缘"一一展现,当然Sally与嘉宾谭咏麟、陈奕迅、容祖儿、林子祥的游戏、歌舞亦精彩绝伦。老牌天后的唱功深厚,名曲集锦,非常值得收藏。这个版本是卡拉OK的,时长两个半小时。画面不是很好,但DTS音质效果还是不错的。

曲目列表:
(CITY GIRL)
01. Overture
02. 干一杯 / 美梦记心中
03. 谈情说爱
04. 迷惑
05. 零时十分 / 完全是你
06. 流金岁月
07. 阿信的故事 INDIAN
08. 美丽苦酒
09. 爱上一个不回家的人(国)
10. 快一些 GOOD FRIEND
11. 雾之恋(谭咏麟/叶倩文)ROMANTIC
12. 我要活下去
(CHINESE)
01. 秋来秋去/伤势
02. 不要对他说(国)
03. 女人的弱点
04. 华丽缘
05. 红尘
06. 焚心似火
07. 黎明不要来
08. 晚风(国)
09. 兰花草(国)
10. 潇洒走一回(国)
11. 情人知己/让我欢喜让我忧(国)/完全是你
12. 左麟右李与Sally左右对话
(BLING BLING & GOOD FRIEND)
01. 二百度(容祖儿/叶倩文)
02. Cha Cha Cha/但是又何奈(国)
03. 海旁独唱
04. 信自己 ANOTHER GOOD FRIEND
05. 爱是怀疑(国)(陈奕迅/叶倩文)
06. 敢爱敢做(陈奕迅/林子祥/叶倩文)HUSBAND
07. 零时十分(林子祥/叶倩文)
08. 祝福

编码信息:
  1.     General
  2.     Unique ID : 202512340011910483828382538227557045093 (0x985A753DC377213CAA605EEF73DB9365)
  3.     Complete name : 叶倩文25周年金曲演唱会2004.mkv
  4.     Format : Matroska
  5.     Format version : Version 4 / Version 2
  6.     File size : 3.22 GiB
  7.     Duration : 2h 30mn
  8.     Overall bit rate : 3 066 Kbps
  9.     Movie name : 葉蒨文25週年金曲演唱會
  10.     Encoded date : UTC 2010-02-22 21:41:31
  11.     Writing application : mkvmerge v5.9.0 ('On The Loose') built on Dec  9 2012 15:37:01
  12.     Writing library : libebml v1.3.0 + libmatroska v1.4.0

  13.     Video #1
  14.     ID : 1
  15.     Format : AVC
  16.     Format/Info : Advanced Video Codec
  17.     Format profile : Main@L3.0
  18.     Format settings, CABAC : Yes
  19.     Format settings, ReFrames : 4 frames
  20.     Muxing mode : Header stripping
  21.     Codec ID : V_MPEG4/ISO/AVC
  22.     Duration : 2h 30mn
  23.     Bit rate : 2 250 Kbps
  24.     Width : 720 pixels
  25.     Height : 544 pixels
  26.     Display aspect ratio : 4:3
  27.     Frame rate mode : Constant
  28.     Frame rate : 29.970 fps
  29.     Color space : YUV
  30.     Chroma subsampling : 4:2:0
  31.     Bit depth : 8 bits
  32.     Scan type : Progressive
  33.     Bits/(Pixel*Frame) : 0.192
  34.     Stream size : 2.36 GiB (73%)
  35.     Writing library : x264 core 116 r2019 9cc407d
  36.     Encoding settings : cabac=1 / ref=3 / deblock=1:0:0 / analyse=0x1:0x111 / me=hex / subme=5 / psy=1 / psy_rd=1.00:0.00 / mixed_ref=1 / me_range=16 / chroma_me=1 / trellis=1 / 8x8dct=0 / cqm=0 / deadzone=21,11 / fast_pskip=1 / chroma_qp_offset=0 / threads=3 / sliced_threads=0 / nr=0 / decimate=1 / interlaced=0 / bluray_compat=0 / constrained_intra=0 / bframes=3 / b_pyramid=2 / b_adapt=1 / b_bias=0 / direct=1 / weightb=1 / open_gop=0 / weightp=2 / keyint=250 / keyint_min=25 / scenecut=40 / intra_refresh=0 / rc_lookahead=40 / rc=crf / mbtree=1 / crf=3.0 / qcomp=0.60 / qpmin=0 / qpmax=69 / qpstep=4 / vbv_maxrate=2560 / vbv_bufsize=512 / crf_max=0.0 / nal_hrd=none / ip_ratio=1.40 / aq=1:1.00
  37.     Default : Yes
  38.     Forced : No

  39.     Audio #2
  40.     ID : 2
  41.     Format : DTS
  42.     Format/Info : Digital Theater Systems
  43.     Mode : 16
  44.     Format settings, Endianness : Big
  45.     Muxing mode : Header stripping
  46.     Codec ID : A_DTS
  47.     Duration : 2h 30mn
  48.     Bit rate mode : Constant
  49.     Bit rate : 755 Kbps
  50.     Channel(s) : 6 channels
  51.     Channel positions : Front: L C R, Side: L R, LFE
  52.     Sampling rate : 48.0 KHz
  53.     Bit depth : 24 bits
  54.     Compression mode : Lossy
  55.     Stream size : 812 MiB (25%)
  56.     Language : Chinese
  57.     Default : Yes
  58.     Forced : No
复制代码

购买主题 已有 13 人购买  本主题需向作者支付 200 元荣币 才能浏览
发表于 2014-09-02 20:15:05 | 显示全部楼层
支持叶倩文
发表于 2014-12-30 21:17:38 | 显示全部楼层
謝謝分享經典演唱會﹗
发表于 2015-01-15 14:50:29 | 显示全部楼层
多谢楼主分享楼主辛苦了
发表于 2015-08-16 11:45:13 | 显示全部楼层
叶倩文曾经的天后,也留下许多经典金曲,希望画质不会太差
头像被屏蔽
发表于 2017-03-24 04:21:54 | 显示全部楼层
提示: 作者被禁止或删除 内容自动屏蔽
发表于 2017-04-01 06:17:08 | 显示全部楼层
叶倩文以前唱得好好听,现在不知为何改变了以前的风格。有点不习惯。
发表于 2017-04-14 05:35:48 | 显示全部楼层
叶倩文早期的演唱会好看些。但这没有呢。
发表于 2019-10-25 13:06:25 | 显示全部楼层
幸福的一对,都是实力派
您需要登录后才可以回帖 登录 | 注册

本版积分规则

快速回复 返回顶部 返回列表