荣光无限论坛

找回密码
注册

QQ登录

只需一步,快速开始

搜索
查看: 1535|回复: 6
收起左侧

1990. 阿飞正传 (BDRip.720P) [3GB]

[复制链接]
发表于 2012-11-26 19:11:32 | 显示全部楼层 |阅读模式

中文片名: 阿飞正传  
英文片名: Days of Being Wild


其它译名: A Fei jing juen  
出品公司: 影之杰制作有限公司  
制片地区: 中国香港  
导演: 王家卫  
编剧: 王家卫  
制片人: 邓光荣  
主演: 张国荣,张曼玉,刘嘉玲,潘迪华,张学友,刘德华  
类型: 剧情  
片长: 94 min  
上映时间: 1990年12月15日  
资源格式:BDRip.x264.DTS
对白语言:粤语原声
字幕语言:外挂简体中文字幕

主要奖项:

第十届香港电影金像奖最佳影片
第十届香港电影金像奖最佳导演
第十届香港电影金像奖最佳男主角 - 张国荣
第十届香港电影金像奖最佳摄影
第十届香港电影金像奖最佳美术
法国南特三大洲电影节最佳女主角


电影简介:

《阿飞正传》由王家卫执导,主演张国荣、张曼玉、刘嘉玲等,此片1990年12月15日于香港上映。《阿飞正传》是香港文艺片的代表作品之一,片中张国荣成功塑造了一位孤傲叛逆的浪子形象,精彩传神的表演让他成功摘得金像奖影帝桂冠,《阿飞正传》也一举获得了第10届香港电影金像奖最佳影片、最佳导演、最佳男主角、最佳摄影与最佳美术五项大奖。此片描述了一位孤傲、叛逆青年的内心世界,充满了浓浓的怀旧氛围,真实再现了香港普通青年的生活环境和社会状况。

剧情简介:

  故事以六十年代初期为背景,折射的却是90年代人们疲惫的灵魂,真实的反映了那个时代香港年轻人内心世界和生活状态。
  旭仔(张国荣饰)是上海移民,他从未见过生母,自小由养母养大,因此长大后他成了反叛青年,渴望高飞,却只做着风流浪子。对生命中遇到的每一个女人都冷酷无情。戏一开头,伴着鞋声,他以背影出场。借买汽水挑逗卖汽水的苏丽珍(张曼玉饰);同居后,因她要结婚,便分手。
  邂逅艳舞女郎梁凤英LuLu(刘嘉玲饰),用耳环诱她返家,女郎从此不能自拔。歪仔(张学友饰)半夜由窗爬入旭仔家,撞见艳舞女郎,遂成心中女神,但她永不接受他。苏丽珍想委曲求全,重回旭仔身边,遭拒,难抑失恋之苦,向巡夜的警察超仔(刘德华饰)倾诉。旭仔因养母拒告生身母所在,故意与她作对,获知生母在菲律宾,前往寻根,却遭拒绝,不获一见。旭仔抢假护照欲往美国。
  一直暗恋苏丽珍的警察(刘德华)目睹了苏丽珍与旭仔的决裂后,决定改行去跑船。在菲律宾,他又见到了旭仔,旭仔因抢护照而后逃跑,但在一列返乡的火车上被仇家寻到,超仔因故离开逃过一劫,旭仔身中两枪,超仔一直守着旭仔直到离开这个世界。
  本片只有人物,并无完整故事。导演驾驭演员,借出色美术设计及极具风格的摄影,直接切入人物内心世界,令观众清晰地感受到环境气氛及角色激情。

编码信息:
  1.     General
  2.     Unique ID : 217615413453389391597179940535536296463 (0xA3B73440C00B043B92016E7E84E9A20F)
  3.     Complete name : 1990.阿飞正传 (Days of Being Wild).mkv
  4.     Format : Matroska
  5.     Format version : Version 4 / Version 2
  6.     File size : 3.00 GiB
  7.     Duration : 1h 34mn
  8.     Overall bit rate : 4 525 Kbps
  9.     Movie name : 阿飛正傳
  10.     Encoded date : UTC 2010-02-22 21:41:31
  11.     Writing application : mkvmerge v5.9.0 ('On The Loose') built on Dec  9 2012 15:37:01
  12.     Writing library : libebml v1.3.0 + libmatroska v1.4.0
  13.     Attachment : Yes / Yes

  14.     Video #1
  15.     ID : 1
  16.     Format : AVC
  17.     Format/Info : Advanced Video Codec
  18.     Format profile : High@L4.1
  19.     Format settings, CABAC : Yes
  20.     Format settings, ReFrames : 8 frames
  21.     Muxing mode : Header stripping
  22.     Codec ID : V_MPEG4/ISO/AVC
  23.     Duration : 1h 34mn
  24.     Bit rate : 3 677 Kbps
  25.     Width : 1 280 pixels
  26.     Height : 720 pixels
  27.     Display aspect ratio : 16:9
  28.     Frame rate mode : Constant
  29.     Frame rate : 24.000 fps
  30.     Color space : YUV
  31.     Chroma subsampling : 4:2:0
  32.     Bit depth : 8 bits
  33.     Scan type : Progressive
  34.     Bits/(Pixel*Frame) : 0.166
  35.     Stream size : 2.39 GiB (80%)
  36.     Writing library : x264 core 129 r2230 1cffe9f
  37.     Encoding settings : cabac=1 / ref=8 / deblock=1:-3:-3 / analyse=0x3:0x133 / me=umh / subme=11 / psy=1 / psy_rd=1.00:0.00 / mixed_ref=1 / me_range=32 / chroma_me=1 / trellis=2 / 8x8dct=1 / cqm=0 / deadzone=21,11 / fast_pskip=0 / chroma_qp_offset=-2 / threads=16 / lookahead_threads=2 / sliced_threads=0 / nr=0 / decimate=1 / interlaced=0 / bluray_compat=0 / constrained_intra=0 / bframes=6 / b_pyramid=2 / b_adapt=2 / b_bias=0 / direct=1 / weightb=1 / open_gop=0 / weightp=2 / keyint=240 / keyint_min=21 / scenecut=40 / intra_refresh=0 / rc_lookahead=40 / rc=2pass / mbtree=1 / bitrate=3677 / ratetol=1.0 / qcomp=0.60 / qpmin=0 / qpmax=69 / qpstep=4 / cplxblur=20.0 / qblur=0.5 / ip_ratio=1.40 / aq=1:1.00
  38.     Default : Yes
  39.     Forced : No

  40.     Audio #2
  41.     ID : 2
  42.     Format : AC-3
  43.     Format/Info : Audio Coding 3
  44.     Mode extension : CM (complete main)
  45.     Format settings, Endianness : Big
  46.     Muxing mode : Header stripping
  47.     Codec ID : A_AC3
  48.     Duration : 1h 34mn
  49.     Bit rate mode : Constant
  50.     Bit rate : 640 Kbps
  51.     Channel(s) : 6 channels
  52.     Channel positions : Front: L C R, Side: L R, LFE
  53.     Sampling rate : 48.0 KHz
  54.     Bit depth : 16 bits
  55.     Compression mode : Lossy
  56.     Stream size : 434 MiB (14%)
  57.     Title : 粤语原声
  58.     Language : Chinese
  59.     Default : Yes
  60.     Forced : No

  61.     Audio #3
  62.     ID : 3
  63.     Format : AC-3
  64.     Format/Info : Audio Coding 3
  65.     Mode extension : CM (complete main)
  66.     Format settings, Endianness : Big
  67.     Muxing mode : Header stripping
  68.     Codec ID : A_AC3
  69.     Duration : 1h 34mn
  70.     Bit rate mode : Constant
  71.     Bit rate : 192 Kbps
  72.     Channel(s) : 2 channels
  73.     Channel positions : Front: L R
  74.     Sampling rate : 48.0 KHz
  75.     Bit depth : 16 bits
  76.     Compression mode : Lossy
  77.     Delay relative to video : 500ms
  78.     Stream size : 130 MiB (4%)
  79.     Title : 国语配音
  80.     Language : Chinese
  81.     Default : No
  82.     Forced : No

  83.     Text #4
  84.     ID : 4
  85.     Format : UTF-8
  86.     Codec ID : S_TEXT/UTF8
  87.     Codec ID/Info : UTF-8 Plain Text
  88.     Language : Chinese
  89.     Default : Yes
  90.     Forced : No

  91.     Text #5
  92.     ID : 5
  93.     Format : UTF-8
  94.     Codec ID : S_TEXT/UTF8
  95.     Codec ID/Info : UTF-8 Plain Text
  96.     Language : English
  97.     Default : No
  98.     Forced : No
复制代码

购买主题 已有 7 人购买  本主题需向作者支付 100 元荣币 才能浏览
发表于 2016-06-09 22:40:51 | 显示全部楼层
后天要去上海看旭仔啦~
发表于 2016-06-22 09:25:40 | 显示全部楼层
看完旭仔来下这个~ 但是下不来啊哭
发表于 2020-06-19 11:45:29 | 显示全部楼层

看完旭仔来下这个~ 但是下不来啊哭
发表于 2021-12-01 13:00:41 | 显示全部楼层
好好看哦
发表于 2022-01-13 11:23:11 | 显示全部楼层
支持!!!!!!!!!!!!
发表于 2022-09-25 00:00:22 | 显示全部楼层
救命啊为什么下载链接是404啊呜呜呜
您需要登录后才可以回帖 登录 | 注册

本版积分规则

快速回复 返回顶部 返回列表