荣光无限论坛

找回密码
注册

QQ登录

只需一步,快速开始

搜索
查看: 2724|回复: 15
收起左侧

1990. 张国荣告别乐坛演唱会 (LD+OK 拼接版) [3.62GB]

[复制链接]
发表于 2012-11-25 13:00:45 | 显示全部楼层 |阅读模式

名 称:张国荣告别乐坛演唱会 (LD+卡拉OK 拼接版)
格 式:(LDRip+DVDRip).x264.AC3.2CH
语 言:粤语 + 英语
字 幕:外挂简体中文字幕

这个版本的DVD文件是从网上下载的,是LD版和卡拉OK版的拼接版本,为了方便区分,标题姑且先这么叫。大家都知道告别演唱会的LD版和卡拉OK版收录的曲目是不一样的,这个版本则是以LD版本为主,添加了LD版没有收录而卡拉OK版本收录的内容,比完整版缺少“偏心”、“抵抗夜寒”、“黑色午夜”、“热辣辣”、“最爱”、“请勿越轨”等曲目,但是是目前所有收录曲目种最清晰的版本了。但遗憾的是拼接的卡拉OK版的卡拉OK字幕和视频画面是一体的去不掉,那很大的绿色字幕,还是很影响画面的。另外众所周知卡拉OK版的音效很差,不及LD版本的声音效果。
做这个视频的很有才,不过我觉得应该不是热心网友的个人行为,因为做成了双 DVD-5 并封装了可分离的中文字幕。

音频部分没有压缩,抽取了原来DVD中封装的 384Kbps 的双声道 AC-3 音频;
视频部分编码格式为 x264,压缩码率为 3300Kbps,已经很高了,比较接近DVD画质。以DVD-5的清晰度,压缩码率再高一些对画质也没什么提升了;
中文字幕部分已经转制为 SRT 格式,逐行手工打出来并校对的,修正了一些翻译不准确的地方并封装为 MKV 格式。


曲目列表(未标注的部分为LD版本内容):

01. Opening / 为你钟情
02. 侧面
03. 寂寞夜晚
04. 无需要太多(卡拉OK版)
05. 侬本多情(卡拉OK版)
06. 不怕寂寞(卡拉OK版)
07. 我愿意(卡拉OK版)
08. MEDLEY: 蓝色忧郁 / 少女心事 / 不羁的风 / MONICA
09. 当年情
10. SALUTE MEDLEY: 童年时 / 似水流年 / 但愿人长久
11. 千千阕歌
12. 爱慕
13. 想你(卡拉OK版)
14. 暴风一族
15. 放荡+介绍乐队与工作人员
16. 无心睡眠(卡拉OK版)
17. MEDLEY: 有谁共鸣 / 沉默是金(卡拉OK版)
18. 倩女幽魂
19. MISS YOU MUCH
20. 由零开始+哥哥内心独白、告别宣言
21. 共同渡过
22. 风继续吹
23. 明星
24. THE WAY WE WERE
25. 风再起时+封咪仪式

编码信息:
  1.     General
  2.     Unique ID : 250393458157441757820965708070073474348 (0xBC6006A1041793DABE8C5BB425E51D2C)
  3.     Complete name : 1990.张国荣告别乐坛演唱会 (LD+OK).mkv
  4.     Format : Matroska
  5.     Format version : Version 2
  6.     File size : 3.62 GiB
  7.     Duration : 2h 17mn
  8.     Overall bit rate : 3 759 Kbps
  9.     Movie name : 張國榮告別樂壇演唱會 (LD+OK)
  10.     Encoded date : UTC 2012-11-21 14:13:50
  11.     Writing application : mkvmerge v5.8.0 ('No Sleep / Pillow') built on Sep  2 2012 15:37:04
  12.     Writing library : libebml v1.2.3 + libmatroska v1.3.0

  13.     Video #1
  14.     ID : 1
  15.     Format : AVC
  16.     Format/Info : Advanced Video Codec
  17.     Format profile : Main@L3.0
  18.     Format settings, CABAC : Yes
  19.     Format settings, ReFrames : 4 frames
  20.     Muxing mode : Header stripping
  21.     Codec ID : V_MPEG4/ISO/AVC
  22.     Duration : 2h 17mn
  23.     Bit rate : 3 300 Kbps
  24.     Width : 720 pixels
  25.     Height : 544 pixels
  26.     Display aspect ratio : 4:3
  27.     Frame rate mode : Constant
  28.     Frame rate : 29.970 fps
  29.     Color space : YUV
  30.     Chroma subsampling : 4:2:0
  31.     Bit depth : 8 bits
  32.     Scan type : Progressive
  33.     Bits/(Pixel*Frame) : 0.281
  34.     Stream size : 3.18 GiB (88%)
  35.     Writing library : x264 core 116 r2019 9cc407d
  36.     Encoding settings : cabac=1 / ref=3 / deblock=1:0:0 / analyse=0x1:0x111 / me=hex / subme=5 / psy=1 / psy_rd=1.00:0.00 / mixed_ref=1 / me_range=16 / chroma_me=1 / trellis=1 / 8x8dct=0 / cqm=0 / deadzone=21,11 / fast_pskip=1 / chroma_qp_offset=0 / threads=3 / sliced_threads=0 / nr=0 / decimate=1 / interlaced=0 / bluray_compat=0 / constrained_intra=0 / bframes=3 / b_pyramid=2 / b_adapt=1 / b_bias=0 / direct=1 / weightb=1 / open_gop=0 / weightp=2 / keyint=250 / keyint_min=25 / scenecut=40 / intra_refresh=0 / rc_lookahead=40 / rc=crf / mbtree=1 / crf=6.0 / qcomp=0.60 / qpmin=0 / qpmax=69 / qpstep=4 / vbv_maxrate=3500 / vbv_bufsize=700 / crf_max=0.0 / nal_hrd=none / ip_ratio=1.40 / aq=1:1.00
  37.     Default : Yes
  38.     Forced : No

  39.     Audio #2
  40.     ID : 2
  41.     Format : AC-3
  42.     Format/Info : Audio Coding 3
  43.     Mode extension : CM (complete main)
  44.     Format settings, Endianness : Big
  45.     Muxing mode : Header stripping
  46.     Codec ID : A_AC3
  47.     Duration : 2h 17mn
  48.     Bit rate mode : Constant
  49.     Bit rate : 384 Kbps
  50.     Channel(s) : 2 channels
  51.     Channel positions : Front: L R
  52.     Sampling rate : 48.0 KHz
  53.     Bit depth : 16 bits
  54.     Compression mode : Lossy
  55.     Stream size : 379 MiB (10%)
  56.     Default : Yes
  57.     Forced : No

  58.     Text #3
  59.     ID : 3
  60.     Format : UTF-8
  61.     Codec ID : S_TEXT/UTF8
  62.     Codec ID/Info : UTF-8 Plain Text
  63.     Language : Chinese
  64.     Default : Yes
  65.     Forced : No
复制代码

购买主题 已有 10 人购买  本主题需向作者支付 300 元荣币 才能浏览
发表于 2015-06-01 11:09:16 | 显示全部楼层
好东西,这个要支持
发表于 2016-04-01 11:48:50 | 显示全部楼层
想来想去 还是要收这个最好的版本
发表于 2016-06-08 10:29:30 | 显示全部楼层
把各种版本收齐~
发表于 2016-06-28 14:24:04 | 显示全部楼层
嘻嘻 要再买来支持 不过好多都下不来
发表于 2016-08-04 23:21:41 | 显示全部楼层
谢谢分享 谢谢分享
发表于 2016-12-22 13:05:58 | 显示全部楼层
thanks you much
头像被屏蔽
发表于 2017-03-24 01:51:03 | 显示全部楼层
提示: 作者被禁止或删除 内容自动屏蔽
发表于 2017-04-08 06:02:24 | 显示全部楼层
应该是盗版双D5版本的
发表于 2019-10-24 14:11:25 | 显示全部楼层
拼接辛苦了,感谢荣迷的付出
发表于 2020-04-15 22:31:49 | 显示全部楼层
还差这个版本,收藏!
发表于 2020-04-15 22:38:46 | 显示全部楼层
有没有最终版?画质与音质俱佳的版本!
发表于 2020-12-13 17:34:39 | 显示全部楼层
1
发表于 2021-01-09 10:26:51 | 显示全部楼层
来的太晚了,盼望还能有效下载,谢谢!
发表于 2021-01-09 10:32:12 | 显示全部楼层
正在下载中,太幸福啦,感谢!
您需要登录后才可以回帖 登录 | 注册

本版积分规则

快速回复 返回顶部 返回列表