荣光无限论坛

找回密码
注册

QQ登录

只需一步,快速开始

搜索
查看: 4006|回复: 13
收起左侧

2006. 金曲情牵半世纪演唱会 (DVDRip.x264.AC3.DD51) [2.83GB]

[复制链接]
发表于 2012-09-08 22:53:33 | 显示全部楼层 |阅读模式
金曲情牵半世纪演唱会2006 (Everlasting Golden Hits Concert Live 2006)

内容简介:
2005年12月举行的《金曲情牵半世纪》演唱会,因大受欢迎而由四场加码至九场,十多位有份量巨星出场献唱经典金曲,好歌不厌百回听!叶丽仪的“上海滩”、叶振棠的“难为正邪定分界”、关菊英的“俩忘烟水里”任何年纪的香港人都必定耳熟能详。汪明荃、郑少秋至今仍活跃于电视圈,这次便演绎一些传颂一时的作品。许冠文拿出搞笑的看家本领表现三段“栋笃笑”,还重唱弟弟许冠杰的“铁塔凌云”。仙杜拉以Rap演唱“新凤阁恩仇未了情”为粤曲注入新意,唱家班出身的陈洁灵、钟镇涛唱功自然了得,久别香港乐坛的张德兰、华娃 (黄霑前妻)、凌波风采再现人前。想再次重温历久常新的的粤语金曲或风采依然的昔日明星,万勿错过!

专辑曲目:
01. Overlure
02. Talk 1 - 许冠文
03. 上海滩 - 叶丽仪
04. 红颜 - 叶丽仪
05. 爱你变成害你 - 叶丽仪
06. 女黑侠木兰花 - 叶丽仪
07. 小傲江湖 - 叶振棠/叶丽仪
08. 万水千山纵横 - 叶振棠
09. 大地恩情 - 叶振棠
10. 难为正邪定分界 - 陈纪匡/叶振棠
11. 忘记心中情 - 叶振棠
12. 俩忘烟水里 - 叶振棠/关菊英
13. 情比雨丝 - 关菊英
14. 过客 - 关菊英
15. 风云 - 仙杜拉
16. Monologue - 仙杜拉
17. 新凤阁恩仇未了情 - 仙杜拉
18. 问我 - 仙杜拉
19. 忘记他 - 朱家欣
20. 当年情 - 陈纪匡
21. 谁可改变 - 陈纪匡
22. 今晚夜 - 陈洁灵
23. 随想曲 - 陈洁灵
24. 星夜星尽 - 陈洁灵
25. 一段情 - 钟镇涛
26. 红叶斜落我心寂寞时 - 钟镇涛
27. 今天我非常寂寞 - 钟镇涛
28. 让一切随风 - 钟镇涛
29. Talk 2 - 许冠文
30. 明星 - 汪明荃
31. 一水隔天涯 - 汪明荃/凌波
32. 十八相送 - 凌波
33. 访英台 - 凌波
34. 郊道 - 凌波
35. 不了情 - 张德兰
36. 浪子心声 - 张德兰
37. 梦 - 华娃
38. 天涯歌女 - 华娃
39. 清风不染 - 郑少秋
40. 不是我的错 - 郑少秋
41. Talk 3 - 许冠文
42. 铁塔凌云 - 许冠文
43. 东方之珠 - 关菊英/仙杜拉/叶振棠
44. 奋斗 - 张德兰/钟镇涛/陈洁灵
45. 亲情 - 叶丽仪/关菊英/仙杜拉/叶振棠/张德兰/钟镇涛/陈洁灵
46. 狮子山下 - 汪明荃/郑少秋/凌波/华娃//叶丽仪/关菊英/仙杜拉/陈洁灵/张德兰/钟镇涛/叶振棠

编码信息:
  1.     General
  2.     Unique ID : 245565505516165327905511574839340576859 (0xB8BE322F8F838849AE6F5DDBE2D0305B)
  3.     Complete name : 金曲情牵半世纪演唱会2006.mkv
  4.     Format : Matroska
  5.     Format version : Version 2
  6.     File size : 2.84 GiB
  7.     Duration : 2h 52mn
  8.     Overall bit rate : 2 352 Kbps
  9.     Movie name : 金曲情牽半世紀演唱會
  10.     Encoded date : UTC 2012-08-29 04:10:59
  11.     Writing application : mkvmerge v4.3.0 ('Escape from the Island') 编译于 Sep  5 2010 10:30:51
  12.     Writing library : libebml v1.0.0 + libmatroska v1.0.0

  13.     Video #1
  14.     ID : 1
  15.     Format : AVC
  16.     Format/Info : Advanced Video Codec
  17.     Format profile : Main@L3.0
  18.     Format settings, CABAC : Yes
  19.     Format settings, ReFrames : 4 frames
  20.     Muxing mode : Header stripping
  21.     Codec ID : V_MPEG4/ISO/AVC
  22.     Duration : 2h 52mn
  23.     Bit rate : 1 921 Kbps
  24.     Width : 720 pixels
  25.     Height : 544 pixels
  26.     Display aspect ratio : 4:3
  27.     Frame rate : 29.970 fps
  28.     Color space : YUV
  29.     Chroma subsampling : 4:2:0
  30.     Bit depth : 8 bits
  31.     Scan type : Progressive
  32.     Bits/(Pixel*Frame) : 0.164
  33.     Stream size : 2.32 GiB (82%)
  34.     Writing library : x264 core 116 r2019 9cc407d
  35.     Encoding settings : cabac=1 / ref=3 / deblock=1:0:0 / analyse=0x1:0x111 / me=hex / subme=5 / psy=1 / psy_rd=1.00:0.00 / mixed_ref=1 / me_range=16 / chroma_me=1 / trellis=1 / 8x8dct=0 / cqm=0 / deadzone=21,11 / fast_pskip=1 / chroma_qp_offset=0 / threads=3 / sliced_threads=0 / nr=0 / decimate=1 / interlaced=0 / bluray_compat=0 / constrained_intra=0 / bframes=3 / b_pyramid=2 / b_adapt=1 / b_bias=0 / direct=1 / weightb=1 / open_gop=0 / weightp=2 / keyint=250 / keyint_min=25 / scenecut=40 / intra_refresh=0 / rc_lookahead=40 / rc=crf / mbtree=1 / crf=19.0 / qcomp=0.60 / qpmin=0 / qpmax=69 / qpstep=4 / vbv_maxrate=2500 / vbv_bufsize=500 / crf_max=0.0 / nal_hrd=none / ip_ratio=1.40 / aq=1:1.00
  36.     Default : Yes
  37.     Forced : No

  38.     Audio #2
  39.     ID : 2
  40.     Format : AC-3
  41.     Format/Info : Audio Coding 3
  42.     Mode extension : CM (complete main)
  43.     Format settings, Endianness : Big
  44.     Muxing mode : Header stripping
  45.     Codec ID : A_AC3
  46.     Duration : 2h 52mn
  47.     Bit rate mode : Constant
  48.     Bit rate : 384 Kbps
  49.     Channel(s) : 6 channels
  50.     Channel positions : Front: L C R, Side: L R, LFE
  51.     Sampling rate : 48.0 KHz
  52.     Bit depth : 16 bits
  53.     Compression mode : Lossy
  54.     Stream size : 475 MiB (16%)
  55.     Default : Yes
  56.     Forced : No

  57.     Text #3
  58.     ID : 3
  59.     Format : VobSub
  60.     Muxing mode : zlib
  61.     Codec ID : S_VOBSUB
  62.     Codec ID/Info : The same subtitle format used on DVDs
  63.     Language : Chinese
  64.     Default : Yes
  65.     Forced : No
复制代码

购买主题 已有 8 人购买  本主题需向作者支付 300 元荣币 才能浏览
发表于 2012-09-09 20:43:08 | 显示全部楼层
已下载,多谢分享。各种下载免费表示真心好爽~~
发表于 2014-09-02 16:17:13 | 显示全部楼层
真是经典呀
发表于 2014-09-09 22:38:32 | 显示全部楼层
经典收藏,谢谢分享
发表于 2014-12-31 04:57:27 | 显示全部楼层
謝謝分享經典演唱會﹗
发表于 2014-12-31 04:58:10 | 显示全部楼层
謝謝分享經典演唱會﹗
发表于 2015-01-01 13:34:21 | 显示全部楼层
演唱會经典收藏,多谢分享。
发表于 2015-01-15 14:16:17 | 显示全部楼层
多谢楼主分享楼主辛苦了
发表于 2015-08-01 17:18:35 | 显示全部楼层
演唱會经典收藏,謝谢分享~
头像被屏蔽
发表于 2017-03-24 23:34:24 | 显示全部楼层
提示: 作者被禁止或删除 内容自动屏蔽
发表于 2017-04-01 06:15:43 | 显示全部楼层
一群老歌声,应该不错。
发表于 2017-04-03 06:50:19 | 显示全部楼层
演唱會经典收藏,多谢分享。
发表于 2019-10-25 14:44:37 | 显示全部楼层
哎,这时候罗文已经不在了,狮子山下是群星一起合唱了
发表于 2019-11-10 13:05:02 | 显示全部楼层
叶振棠、叶丽仪、张德兰、郑少秋,全部都是扛把子人物啊!太赞了,感谢楼主分享!
您需要登录后才可以回帖 登录 | 注册

本版积分规则

快速回复 返回顶部 返回列表