荣光无限论坛

找回密码
注册

QQ登录

搜索
热搜: 邀请 充值 邮箱
查看: 93130|回复: 163
收起左侧

[演唱现场] 1990. 张国荣告别乐坛演唱会 [LD版] (LDRip.x264.AC3, 2.97GB)

    [复制链接]
发表于 2011-04-01 12:02:46 | 显示全部楼层 |阅读模式

马上注册,结交更多同道中人,享用更多功能,让你轻松融入哥迷大家庭。

您需要 登录 才可以下载或查看,没有帐号?注册

x
2012/09/12 重新制作并发布。
频文件与简体中文、繁体广东方言的字幕一起封装为 MKV 格式。
所采用的外挂SRT字幕:https://bbs.leslie.org.cn/thread-41621-1-1.html (更新时间:2011/04/01,如有错误请及时反馈)

视频编码:x264 ,码率:3356Kbps。画面尺寸:1024 * 768(PAL制式  4:3 宽高比)
音频编码:AC-3 / 2Ch,码率:448Kbps(源音频为 1509Kbps LPCM Audio 2Ch)
文件码率:3806Kbps,体积:2.97GB
外挂字幕:简体中文 / 繁体广东方言
封装格式:Matroska

曲目列表:
01. Opening / 为你钟情
02. 侧面
03. 寂寞夜晚
04. Medley: 蓝色忧郁 / 少女心事 / 不羁的风 / Monica
05. 当年情
06. Medley: 童年时 / 似水流年 / 但愿人长久
07. 千千阕歌
08. 爱慕
09. 暴风一族
10. 放荡
11. 倩女幽魂
12. Miss You Mich
13. 由零开始
14. 哥哥内心独白 / 告别宣言
15. 共同渡过
16. 风继续吹
17. 明星
18. The Way We Were
19. 风再起时
20. 封咪仪式 / Closing

编码信息:
  1. General
  2. Unique ID                      : 180680407363855469160389811558220167677 (0x87EDC7DB570C8A0B8F569C92E9ADF9FD)
  3. Complete name                  : 1990. 张国荣告别乐坛演唱会 (LDRip.x264.AC3).mkv
  4. Format                         : Matroska
  5. Format version                 : Version 4
  6. File size                      : 2.97 GiB
  7. Duration                       : 1 h 51 min
  8. Overall bit rate               : 3 806 kb/s
  9. Movie name                     : 張國榮告別樂壇演唱會 (1990)
  10. Encoded date                   : UTC 2010-02-22 21:41:31
  11. Writing application            : mkvmerge v5.9.0 ('On The Loose') built on Dec  9 2012 15:37:01
  12. Writing library                : libebml v1.3.0 + libmatroska v1.4.0

  13. Video
  14. ID                             : 1
  15. Format                         : AVC
  16. Format/Info                    : Advanced Video Codec
  17. Format profile                 : High@L3.1
  18. Format settings                : CABAC / 4 Ref Frames
  19. Format settings, CABAC         : Yes
  20. Format settings, Reference fra : 4 frames
  21. Muxing mode                    : Header stripping
  22. Codec ID                       : V_MPEG4/ISO/AVC
  23. Duration                       : 1 h 51 min
  24. Bit rate                       : 3 356 kb/s
  25. Width                          : 1 024 pixels
  26. Height                         : 768 pixels
  27. Display aspect ratio           : 4:3
  28. Frame rate mode                : Constant
  29. Frame rate                     : 29.970 (29970/1000) FPS
  30. Color space                    : YUV
  31. Chroma subsampling             : 4:2:0
  32. Bit depth                      : 8 bits
  33. Scan type                      : Progressive
  34. Bits/(Pixel*Frame)             : 0.142
  35. Stream size                    : 2.57 GiB (86%)
  36. Writing library                : x264 core 148
  37. Encoding settings              : cabac=1 / ref=3 / deblock=1:0:0 / analyse=0x3:0x113 / me=hex / subme=7 / psy=1 / psy_rd=1.00:0.00 / mixed_ref=1 / me_range=16 / chroma_me=1 / trellis=1 / 8x8dct=1 / cqm=0 / deadzone=21,11 / fast_pskip=1 / chroma_qp_offset=-2 / threads=6 / lookahead_threads=1 / sliced_threads=0 / nr=0 / decimate=1 / interlaced=0 / bluray_compat=0 / constrained_intra=0 / bframes=3 / b_pyramid=2 / b_adapt=1 / b_bias=0 / direct=1 / weightb=1 / open_gop=0 / weightp=2 / keyint=250 / keyint_min=25 / scenecut=40 / intra_refresh=0 / rc_lookahead=40 / rc=2pass / mbtree=1 / bitrate=3356 / ratetol=1.0 / qcomp=0.60 / qpmin=0 / qpmax=69 / qpstep=4 / cplxblur=20.0 / qblur=0.5 / ip_ratio=1.40 / aq=1:1.00
  38. Default                        : Yes
  39. Forced                         : No

  40. Audio
  41. ID                             : 2
  42. Format                         : AC-3
  43. Format/Info                    : Audio Coding 3
  44. Commercial name                : Dolby Digital
  45. Muxing mode                    : Header stripping
  46. Codec ID                       : A_AC3
  47. Duration                       : 1 h 51 min
  48. Bit rate mode                  : Constant
  49. Bit rate                       : 448 kb/s
  50. Channel(s)                     : 2 channels
  51. Channel layout                 : L R
  52. Sampling rate                  : 48.0 kHz
  53. Frame rate                     : 31.250 FPS (1536 SPF)
  54. Compression mode               : Lossy
  55. Stream size                    : 359 MiB (12%)
  56. Language                       : Chinese
  57. Service kind                   : Complete Main
  58. Default                        : Yes
  59. Forced                         : No

  60. Text #1
  61. ID                             : 3
  62. Format                         : UTF-8
  63. Codec ID                       : S_TEXT/UTF8
  64. Codec ID/Info                  : UTF-8 Plain Text
  65. Title                          : Chinese
  66. Language                       : Chinese
  67. Default                        : Yes
  68. Forced                         : No

  69. Text #2
  70. ID                             : 4
  71. Format                         : UTF-8
  72. Codec ID                       : S_TEXT/UTF8
  73. Codec ID/Info                  : UTF-8 Plain Text
  74. Title                          : Cantonese
  75. Language                       : Chinese
  76. Default                        : No
  77. Forced                         : No
复制代码
推荐使用完美解码、终极解码(使用内置的 PotPlayer 播放器)等播放器播放。可以选择是否显示字幕,以及切换简体中文/繁体中文字幕。

画面截图:

LESLIE90_20110404_095921.jpg

LESLIE90_20110404_095926.jpg

LESLIE90_20110404_100257.jpg

LESLIE90_20110404_100356.jpg

LESLIE90_20110404_100431.jpg

LESLIE90_20110404_100519.jpg

LESLIE90_20110404_100559.jpg


下载地址:
游客,如果您要查看本帖隐藏内容请回复


发表于 2014-11-02 23:08:47 | 显示全部楼层
以前在我们省的图书馆看到过告别LD,问在省图工作的同学能否搞出来,答曰此乃声像部的馆藏
发表于 2014-01-15 14:51:36 | 显示全部楼层
老大,完整版的能不能也做这么精细呀,期待······
发表于 2015-03-13 22:10:56 | 显示全部楼层
多谢楼主分享
可以洗版了
简直大福利
发表于 2011-04-01 13:03:25 | 显示全部楼层
等待。辛苦。
发表于 2011-04-01 19:32:26 | 显示全部楼层
继续等待,感谢
发表于 2011-04-02 15:21:35 | 显示全部楼层
很感谢你的制作 告别是我最喜欢的演唱会 但不希望是告别 89真是一个高峰
发表于 2011-04-03 21:08:20 | 显示全部楼层
感谢老大的辛勤劳动……
发表于 2011-04-04 04:25:32 | 显示全部楼层
这么好的东西给我找到了 谢谢分享 感谢
发表于 2011-04-04 09:48:53 | 显示全部楼层
有没预览图啊~~~~
不过,多谢多谢啦~~~
发表于 2011-04-04 16:30:29 | 显示全部楼层
谢谢老大
发表于 2011-04-05 01:04:44 | 显示全部楼层
昨天刚在北京活动看了告别,气氛真好,感谢老大重新制作
发表于 2011-04-05 20:42:36 | 显示全部楼层
感谢分享
发表于 2011-04-05 21:08:33 | 显示全部楼层
感谢老大重新制作。
发表于 2011-04-06 10:45:46 | 显示全部楼层
除了与大家一起共享好的气氛,还想有一份独自内心的感受。感谢老大重新制作
发表于 2011-04-06 14:24:02 | 显示全部楼层
下好了,效果很好呢~
发表于 2011-04-08 22:29:26 | 显示全部楼层
下了~ 谢谢~~
发表于 2011-04-25 17:27:02 | 显示全部楼层
感谢分享!~
您需要登录后才可以回帖 登录 | 注册

本版积分规则

| 手机客户端|小黑屋|Archiver|关于我们|联系方式| 荣光无限|沪ICP备09096540号-1

© 2002-2020  荣光无限 - 张国荣歌影迷网  版权所有

快速回复 返回顶部 返回列表