荣光无限论坛

找回密码
注册

QQ登录

新浪微博登陆

搜索
热搜: 邀请 充值 邮箱
查看: 2442|回复: 48
收起左侧

[电影剧集] 1982. 柠檬可乐 (DVDRip.邵氏) [1.64GB]

[复制链接]
发表于 2015-2-10 16:30 | 显示全部楼层 |阅读模式

马上注册,结交更多同道中人,享用更多功能,让你轻松融入哥迷大家庭。

您需要 登录 才可以下载或查看,没有帐号?注册 新浪微博登陆

x
这是张国荣成名前的青春片代表作,演员包括八十年代青春片天后周秀兰及露云娜。本片获第十九届金马奖最佳原著剧本及最佳美术设计提名。

Teenage Dreamers.jpg

中文名:柠檬可乐
外文名:Teenage Dreamers
发 行:卲氏兄弟公司
导 演:蔡继光
编 剧:高志森
制片人:方逸华 邵仁枚
类 型:喜剧,爱情,剧情
主 演:张国荣,周秀兰,露云娜,苏杏璇,卢业媚
片 长:86分钟
上 映:1982年3月24日
对 白:粤语 / 英语 / 汉语普通话
色 彩:彩色
奖 项:第十九届金马奖最佳原著剧本、最佳美术设计提名

剧情简介:
这部表现青少年学生生活和爱情的影片,情节平淡,但却细腻地刻画了青春期成长的心理变化。故事围绕着四个性格独特的女生展开了各自不同的浪漫故事。中四的同学婷婷、肥班、大丧及露露合称“四人帮”,四位花季少女就读于一家女校,虽然性格不同,但情同姐妹。其中清纯天真的婷婷在课余演出《罗密欧与朱丽叶》时与扮演罗密欧的男生杰逊,与之相识并相恋,由此发展成一段美妙的爱情经历,但两人自觉年龄尚小,对如何处理这段感情举棋不定。出身贫寒的露露为获得物质享受到色情场所陪酒,后来她又迷上了留美回来的年轻代课教师。而其他女孩也各有际遇,一段段故事丰富了她们的青春生活。

编码信息:
  1. General
  2. Unique ID                      : 239086601797146093400159326355545205395 (0xB3DE6791EB291CE580B86171B0012A93)
  3. Format                         : Matroska
  4. Format version                 : Version 4 / Version 2
  5. File size                      : 1.65 GiB
  6. Duration                       : 1h 25mn
  7. Overall bit rate               : 2 746 Kbps
  8. Movie name                     : 檸檬可樂 (1982)
  9. Encoded date                   : UTC 2010-02-22 21:41:31
  10. Writing application            : mkvmerge v5.9.0 ('On The Loose') built on Dec  9 2012 15:37:01
  11. Writing library                : libebml v1.3.0 + libmatroska v1.4.0

  12. Video
  13. ID                             : 1
  14. Format                         : AVC
  15. Format/Info                    : Advanced Video Codec
  16. Format profile                 : Main@L3.1
  17. Format settings, CABAC         : Yes
  18. Format settings, ReFrames      : 4 frames
  19. Muxing mode                    : Header stripping
  20. Codec ID                       : V_MPEG4/ISO/AVC
  21. Duration                       : 1h 25mn
  22. Bit rate                       : 2 360 Kbps
  23. Width                          : 1 024 pixels
  24. Height                         : 768 pixels
  25. Display aspect ratio           : 4:3
  26. Frame rate mode                : Constant
  27. Frame rate                     : 29.970 fps
  28. Color space                    : YUV
  29. Chroma subsampling             : 4:2:0
  30. Bit depth                      : 8 bits
  31. Scan type                      : Progressive
  32. Bits/(Pixel*Frame)             : 0.100
  33. Stream size                    : 1.38 GiB (84%)
  34. Writing library                : x264 core 116 r2019 9cc407d
  35. Encoding settings              : cabac=1 / ref=3 / deblock=1:0:0 / analyse=0x1:0x111 / me=hex / subme=6 / psy=1 / psy_rd=1.00:0.00 / mixed_ref=1 / me_range=16 / chroma_me=1 / trellis=1 / 8x8dct=0 / cqm=0 / deadzone=21,11 / fast_pskip=1 / chroma_qp_offset=-2 / threads=3 / sliced_threads=0 / nr=0 / decimate=1 / interlaced=0 / bluray_compat=0 / constrained_intra=0 / bframes=3 / b_pyramid=2 / b_adapt=1 / b_bias=0 / direct=1 / weightb=1 / open_gop=0 / weightp=2 / keyint=250 / keyint_min=25 / scenecut=40 / intra_refresh=0 / rc_lookahead=40 / rc=abr / mbtree=1 / bitrate=2360 / ratetol=1.0 / qcomp=0.60 / qpmin=0 / qpmax=69 / qpstep=4 / vbv_maxrate=3000 / vbv_bufsize=600 / nal_hrd=none / ip_ratio=1.40 / aq=1:1.00
  36. Default                        : Yes
  37. Forced                         : No

  38. Audio #1
  39. ID                             : 2
  40. Format                         : AC-3
  41. Format/Info                    : Audio Coding 3
  42. Mode extension                 : CM (complete main)
  43. Format settings, Endianness    : Big
  44. Muxing mode                    : Header stripping
  45. Codec ID                       : A_AC3
  46. Duration                       : 1h 25mn
  47. Bit rate mode                  : Constant
  48. Bit rate                       : 192 Kbps
  49. Channel(s)                     : 2 channels
  50. Channel positions              : Front: L R
  51. Sampling rate                  : 48.0 KHz
  52. Bit depth                      : 16 bits
  53. Compression mode               : Lossy
  54. Stream size                    : 118 MiB (7%)
  55. Title                          : 粤语
  56. Language                       : Chinese
  57. Default                        : Yes
  58. Forced                         : No

  59. Audio #2
  60. ID                             : 3
  61. Format                         : AC-3
  62. Format/Info                    : Audio Coding 3
  63. Mode extension                 : CM (complete main)
  64. Format settings, Endianness    : Big
  65. Muxing mode                    : Header stripping
  66. Codec ID                       : A_AC3
  67. Duration                       : 1h 25mn
  68. Bit rate mode                  : Constant
  69. Bit rate                       : 192 Kbps
  70. Channel(s)                     : 2 channels
  71. Channel positions              : Front: L R
  72. Sampling rate                  : 48.0 KHz
  73. Bit depth                      : 16 bits
  74. Compression mode               : Lossy
  75. Stream size                    : 118 MiB (7%)
  76. Title                          : 国语
  77. Language                       : Chinese
  78. Default                        : No
  79. Forced                         : No

  80. Text #1
  81. ID                             : 4
  82. Format                         : VobSub
  83. Muxing mode                    : zlib
  84. Codec ID                       : S_VOBSUB
  85. Codec ID/Info                  : The same subtitle format used on DVDs
  86. Title                          : 繁体中文
  87. Language                       : Chinese
  88. Default                        : Yes
  89. Forced                         : No

  90. Text #2
  91. ID                             : 5
  92. Format                         : VobSub
  93. Muxing mode                    : zlib
  94. Codec ID                       : S_VOBSUB
  95. Codec ID/Info                  : The same subtitle format used on DVDs
  96. Title                          : 简体中文
  97. Language                       : Chinese
  98. Default                        : No
  99. Forced                         : No

  100. Text #3
  101. ID                             : 6
  102. Format                         : VobSub
  103. Muxing mode                    : zlib
  104. Codec ID                       : S_VOBSUB
  105. Codec ID/Info                  : The same subtitle format used on DVDs
  106. Title                          : English
  107. Language                       : English
  108. Default                        : No
  109. Forced                         : No
复制代码

下载地址:
游客,如果您要查看本帖隐藏内容请回复
发表于 2015-2-10 17:39 (来自手机版) | 显示全部楼层
戏中戏里青春无敌的罗密欧!感谢分享
发表于 2015-2-10 17:39 (来自手机版) | 显示全部楼层
戏中戏里青春无敌的罗密欧!感谢分享
发表于 2015-2-10 17:53 | 显示全部楼层
多谢分享!!
发表于 2015-2-11 08:05 | 显示全部楼层
谢谢~我会珍惜~保存的!
发表于 2015-2-11 16:42 | 显示全部楼层
還沒看過的
发表于 2015-2-11 21:40 | 显示全部楼层
多谢分享!!

130

粉丝

240

关注

609

微博
发表于 2015-2-12 14:10 | 显示全部楼层
[心]
发表于 2015-2-19 01:11 | 显示全部楼层
哥哥早期的代表作品,很棒。
发表于 2015-2-20 18:22 | 显示全部楼层
多谢分享好资源!新年快乐!
发表于 2015-3-15 19:11 | 显示全部楼层
感谢有心人的分享。
发表于 2015-3-16 00:11 | 显示全部楼层
很喜欢这部电影
发表于 2015-3-19 00:04 | 显示全部楼层
谢谢分享~~~~~~~~~~~~~
发表于 2015-4-5 17:24 | 显示全部楼层
谢谢分享!
发表于 2015-4-5 17:25 | 显示全部楼层
老大,链接被吞了打不开。。
您需要登录后才可以回帖 登录 | 注册 新浪微博登陆

本版积分规则

手机客户端|小黑屋|Archiver|关于我们|联系方式| 荣光无限|沪ICP备09096540号-1

© 2002-2018 荣光无限 - 张国荣歌影迷网   版权所有

快速回复 返回顶部 返回列表