荣光无限论坛

找回密码
注册

QQ登录

新浪微博登陆

搜索
热搜: 邀请 充值 邮箱
查看: 5211|回复: 70
收起左侧

[电影剧集] 1983. 杨过与小龙女 (DVDRip.邵氏) [2.15GB]

[复制链接]
发表于 2015-1-28 14:00 | 显示全部楼层 |阅读模式

马上注册,结交更多同道中人,享用更多功能,让你轻松融入哥迷大家庭。

您需要 登录 才可以下载或查看,没有帐号?注册 新浪微博登陆

x
《杨过与小龙女》是香港邵氏电影公司1983年出品的电影,改编自金庸名著《神雕侠侣》,由张国荣与翁静晶分别饰演杨过与小龙女。片中杨过因忍受不了师傅与师兄弟欺辱,在打伤同门师兄后,逃离全真教,后被古墓派所救,并于古墓派小龙女相识并相爱,由于种种误会,演绎一段师徒相恋的爱恨情仇。
邵氏的古装武侠很有年代感,不像现在的古装剧这样假。而且可能是受张彻风格的影响,武侠片动作都很硬朗,不矫情不做作。不过因改编自长篇的经典小说,剧情上和拖拖拉拉就剧就相反了,电影跨度大,节凑有点快。

Little Dragon Maiden.jpg

中文名:杨过与小龙女
外文名:Little Dragon Maiden

出 品:邵氏电影公司
地 区:中国香港
导 演:华山
编 剧:谭宁,蔡乃斌
出品人:邵逸夫
制作人:黄家禧
原 著:金庸
制片人:方逸华,黄家禧,邵逸夫
类 型:武侠、动作、爱情
主 演:张国荣,翁静晶
片 长:92分钟
上 映:1983年12月02日
语 言:粤语,普通话
色 彩:彩色
imdb编码:0084256

剧情简介:
该影片改编自金庸名著 《神雕侠侣》,张国荣与翁静晶分别饰演杨过与小龙女。
故事描述小龙女与杨过本于古墓中融洽生活;但小龙女遭尹志平迷奸,误以为失身于杨过;杨不知就里婉拒婚议,龙愤然出走。后杨与龙重逢,重提婚事,却遭黄蓉劝阻……

编码信息:
  1. General
  2. Unique ID                      : 240489828548377297916584914806417059161 (0xB4ECA7FD859B55EA87723160CECAED59)
  3. Format                         : Matroska
  4. Format version                 : Version 4 / Version 2
  5. File size                      : 2.15 GiB
  6. Duration                       : 1h 32mn
  7. Overall bit rate               : 3 343 Kbps
  8. Movie name                     : 楊過與小龍女 (1983)
  9. Encoded date                   : UTC 2010-02-22 21:41:31
  10. Writing application            : mkvmerge v5.9.0 ('On The Loose') built on Dec  9 2012 15:37:01
  11. Writing library                : libebml v1.3.0 + libmatroska v1.4.0

  12. Video
  13. ID                             : 1
  14. Format                         : AVC
  15. Format/Info                    : Advanced Video Codec
  16. Format profile                 : Main@L3.1
  17. Format settings, CABAC         : Yes
  18. Format settings, ReFrames      : 4 frames
  19. Muxing mode                    : Header stripping
  20. Codec ID                       : V_MPEG4/ISO/AVC
  21. Duration                       : 1h 32mn
  22. Bit rate                       : 2 580 Kbps
  23. Width                          : 1 024 pixels
  24. Height                         : 576 pixels
  25. Display aspect ratio           : 16:9
  26. Frame rate mode                : Constant
  27. Frame rate                     : 29.970 fps
  28. Color space                    : YUV
  29. Chroma subsampling             : 4:2:0
  30. Bit depth                      : 8 bits
  31. Scan type                      : Progressive
  32. Bits/(Pixel*Frame)             : 0.146
  33. Stream size                    : 1.61 GiB (75%)
  34. Writing library                : x264 core 116 r2019 9cc407d
  35. Encoding settings              : cabac=1 / ref=3 / deblock=1:0:0 / analyse=0x1:0x111 / me=hex / subme=6 / psy=1 / psy_rd=1.00:0.00 / mixed_ref=1 / me_range=16 / chroma_me=1 / trellis=1 / 8x8dct=0 / cqm=0 / deadzone=21,11 / fast_pskip=1 / chroma_qp_offset=-2 / threads=3 / sliced_threads=0 / nr=0 / decimate=1 / interlaced=0 / bluray_compat=0 / constrained_intra=0 / bframes=3 / b_pyramid=2 / b_adapt=1 / b_bias=0 / direct=1 / weightb=1 / open_gop=0 / weightp=2 / keyint=250 / keyint_min=25 / scenecut=40 / intra_refresh=0 / rc_lookahead=40 / rc=abr / mbtree=1 / bitrate=2580 / ratetol=1.0 / qcomp=0.60 / qpmin=0 / qpmax=69 / qpstep=4 / vbv_maxrate=3000 / vbv_bufsize=600 / nal_hrd=none / ip_ratio=1.40 / aq=1:1.00
  36. Default                        : Yes
  37. Forced                         : No

  38. Audio #1
  39. ID                             : 2
  40. Format                         : AC-3
  41. Format/Info                    : Audio Coding 3
  42. Mode extension                 : CM (complete main)
  43. Format settings, Endianness    : Big
  44. Muxing mode                    : Header stripping
  45. Codec ID                       : A_AC3
  46. Duration                       : 1h 32mn
  47. Bit rate mode                  : Constant
  48. Bit rate                       : 384 Kbps
  49. Channel(s)                     : 6 channels
  50. Channel positions              : Front: L C R, Side: L R, LFE
  51. Sampling rate                  : 48.0 KHz
  52. Bit depth                      : 16 bits
  53. Compression mode               : Lossy
  54. Stream size                    : 253 MiB (11%)
  55. Title                          : 粤语
  56. Language                       : Chinese
  57. Default                        : Yes
  58. Forced                         : No

  59. Audio #2
  60. ID                             : 3
  61. Format                         : AC-3
  62. Format/Info                    : Audio Coding 3
  63. Mode extension                 : CM (complete main)
  64. Format settings, Endianness    : Big
  65. Muxing mode                    : Header stripping
  66. Codec ID                       : A_AC3
  67. Duration                       : 1h 32mn
  68. Bit rate mode                  : Constant
  69. Bit rate                       : 384 Kbps
  70. Channel(s)                     : 6 channels
  71. Channel positions              : Front: L C R, Side: L R, LFE
  72. Sampling rate                  : 48.0 KHz
  73. Bit depth                      : 16 bits
  74. Compression mode               : Lossy
  75. Stream size                    : 253 MiB (11%)
  76. Title                          : 国语
  77. Language                       : Chinese
  78. Default                        : No
  79. Forced                         : No

  80. Text #1
  81. ID                             : 4
  82. Format                         : VobSub
  83. Muxing mode                    : zlib
  84. Codec ID                       : S_VOBSUB
  85. Codec ID/Info                  : The same subtitle format used on DVDs
  86. Language                       : Chinese
  87. Default                        : Yes
  88. Forced                         : No

  89. Text #2
  90. ID                             : 5
  91. Format                         : VobSub
  92. Muxing mode                    : zlib
  93. Codec ID                       : S_VOBSUB
  94. Codec ID/Info                  : The same subtitle format used on DVDs
  95. Language                       : English
  96. Default                        : No
  97. Forced                         : No
复制代码

下载地址:
游客,如果您要查看本帖隐藏内容请回复


发表于 2015-1-28 14:10 | 显示全部楼层
谢谢分享!

24

粉丝

101

关注

245

微博
发表于 2015-1-28 19:31 | 显示全部楼层
就喜欢杨过

66

粉丝

61

关注

217

微博
发表于 2015-1-28 19:31 | 显示全部楼层
好~
发表于 2015-1-28 19:31 | 显示全部楼层
邵氏经典,赞

267

粉丝

191

关注

568

微博
发表于 2015-1-28 20:23 | 显示全部楼层
@双竹素
发表于 2015-1-28 20:24 | 显示全部楼层
《偶然》无法下载了~

82

粉丝

84

关注

409

微博
发表于 2015-1-28 21:36 | 显示全部楼层
回复@顾巧墨JJ:哈哈哈,话说我还没看过这版的~哥哥的电影我看的都是一些代表作~哪天要去把他演的电影都看齐[爱你][哈哈]

267

粉丝

191

关注

568

微博
发表于 2015-1-29 04:16 | 显示全部楼层
回复@双竹素:我特别喜欢哥哥和大仙的老婆靓靓合作的四部电影,大三元、满汉全席、金枝玉叶1和2。不过我觉得我们共同喜欢的应该是 《胭脂扣 》这部电影。
发表于 2015-1-29 11:54 | 显示全部楼层
感谢分享!

82

粉丝

84

关注

409

微博
发表于 2015-1-29 15:18 | 显示全部楼层
回复@顾巧墨JJ:我喜欢哥哥拍的文艺片,东邪西毒,阿飞正传,胭脂扣这些都喜欢,还有倩女幽魂白发魔女传[爱你][太开心]
发表于 2015-1-29 15:20 | 显示全部楼层
謝謝分享

267

粉丝

191

关注

568

微博
发表于 2015-1-29 16:57 | 显示全部楼层
回复@双竹素:春光乍泄呢。我觉得哥哥早期的作品看的是作品,后期的作品里面掺杂了哥哥个人的魅力。

82

粉丝

84

关注

409

微博
发表于 2015-1-29 21:21 | 显示全部楼层
回复@顾巧墨JJ:对春光乍泄无感啊~可能我不太喜欢这个题材吧[偷笑]~话说开头看得我很羞涩[害羞]~
发表于 2015-1-30 14:34 | 显示全部楼层
谢谢分享!
您需要登录后才可以回帖 登录 | 注册 新浪微博登陆

本版积分规则

手机客户端|小黑屋|Archiver|关于我们|联系方式| 荣光无限|沪ICP备09096540号-1

© 2002-2018 荣光无限 - 张国荣歌影迷网   版权所有

快速回复 返回顶部 返回列表