荣光无限论坛

找回密码
注册

QQ登录

新浪微博登陆

搜索
热搜: 邀请 充值 邮箱
查看: 1912|回复: 30
收起左侧

[电影剧集] 1993. 白发魔女传2 (DVDRip.香港三区) [1.9GB]

[复制链接]
发表于 2015-1-21 00:45 | 显示全部楼层 |阅读模式

马上注册,结交更多同道中人,享用更多功能,让你轻松融入哥迷大家庭。

您需要 登录 才可以下载或查看,没有帐号?注册 新浪微博登陆

x
《白发魔女传》两部戏拍摄时间上比较紧张,因为合约及演员档期问题,第一部的主角张国荣和林青霞只是在第二部中客串了一下,出现在了开头和结尾处,大概只有十分钟左右。

The Bride with White Hair 2.jpg

中文名:白发魔女传2
外文名:Jiang-Hu: Between Love and Glory 2
另译名:The Bride with White Hair 2
时 间:1993年12月23日
出 品:东方电影制作有限公司
发 行:Century Pacific
地 区:中国香港
导 演:于仁泰、胡大为
编 剧:胡大为、于仁泰、杜国威
制片人:于仁泰
类 型:武侠、爱情
主 演:林青霞,张国荣,陈锦鸿,万绮雯,钟丽缇
片 长:80分钟
上 映:1993年12月23日
对 白:粤语
色 彩:彩色

剧情简介:
自从武当派大弟子卓一航与邪教魔女练霓裳相恋后,受尽各派人士非议,迫使练血洗武当,与卓决裂后从此销声匿迹。如今魔女已走火入魔,并练得天下无敌奇功,四处杀戮正派人士,难为了卓呆守于雪峰之顶,待奇花盛开之日再觅爱人芳踪。
适逢武当后人封俊杰迎娶点苍派玉女虞琴之夜,魔女再现,杀宾客掳新娘,杰为救虞琴被魔女打至重伤,幸得女扮男装的昆仑派后人凌月儿营救,幸免于难。虞琴被掳至圆圆仙观,一所由吴三桂爱妾陈圆圆与魔女共同建立的仙观,对天下负心男儿报复的根据地。峨嵋派姥姥欲借武林大会之机对抗魔女,率领各派攻入仙观,惟无功而退,甚至累得月儿为救杰性命垂危中了白发魔女的红颜白发,一运功便会经脉尽毁而亡,终于为了救玉寒和俊杰最后运功身亡。之后,峨嵋姥姥派俊杰往千雪峰找卓帮忙,时值奇花开放,卓携花下山找魔女欲与其破镜重圆,俊杰向练霓裳说明卓一航为等奇花开放在钱雪峰苦等十年才等得花开,练霓裳方才醒悟,之前恩怨一笔勾销,奈何陈圆圆背后给出一剑,并将奇花烧毁,练霓裳将陈圆圆打成重伤推进火海。虽然没有了奇花来医治白发魔女的头发,但练霓裳与卓一航之间的误会全部消除,两人相拥在一起,回忆起从前快乐的点点滴滴,终于在亲吻中练霓裳的白发也慢慢变黑……

编码信息:
  1. General
  2. Unique ID                      : 208264025613158130063959096235391588087 (0x9CAE313C529B964DB62E815434CA16F7)
  3. Format                         : Matroska
  4. Format version                 : Version 4 / Version 2
  5. File size                      : 1.90 GiB
  6. Duration                       : 1h 20mn
  7. Overall bit rate               : 3 389 Kbps
  8. Movie name                     : 白髮魔女傳2 (1993)
  9. Encoded date                   : UTC 2010-02-22 21:41:31
  10. Writing application            : mkvmerge v5.9.0 ('On The Loose') built on Dec  9 2012 15:37:01
  11. Writing library                : libebml v1.3.0 + libmatroska v1.4.0

  12. Video
  13. ID                             : 1
  14. Format                         : AVC
  15. Format/Info                    : Advanced Video Codec
  16. Format profile                 : Main@L3.1
  17. Format settings, CABAC         : Yes
  18. Format settings, ReFrames      : 4 frames
  19. Muxing mode                    : Header stripping
  20. Codec ID                       : V_MPEG4/ISO/AVC
  21. Duration                       : 1h 20mn
  22. Bit rate                       : 2 620 Kbps
  23. Width                          : 1 024 pixels
  24. Height                         : 768 pixels
  25. Display aspect ratio           : 4:3
  26. Frame rate mode                : Constant
  27. Frame rate                     : 29.970 fps
  28. Color space                    : YUV
  29. Chroma subsampling             : 4:2:0
  30. Bit depth                      : 8 bits
  31. Scan type                      : Progressive
  32. Bits/(Pixel*Frame)             : 0.111
  33. Stream size                    : 1.43 GiB (75%)
  34. Writing library                : x264 core 116 r2019 9cc407d
  35. Encoding settings              : cabac=1 / ref=3 / deblock=1:0:0 / analyse=0x1:0x111 / me=hex / subme=6 / psy=1 / psy_rd=1.00:0.00 / mixed_ref=1 / me_range=16 / chroma_me=1 / trellis=1 / 8x8dct=0 / cqm=0 / deadzone=21,11 / fast_pskip=1 / chroma_qp_offset=-2 / threads=3 / sliced_threads=0 / nr=0 / decimate=1 / interlaced=0 / bluray_compat=0 / constrained_intra=0 / bframes=3 / b_pyramid=2 / b_adapt=1 / b_bias=0 / direct=1 / weightb=1 / open_gop=0 / weightp=2 / keyint=250 / keyint_min=25 / scenecut=40 / intra_refresh=0 / rc_lookahead=40 / rc=abr / mbtree=1 / bitrate=2620 / ratetol=1.0 / qcomp=0.60 / qpmin=0 / qpmax=69 / qpstep=4 / vbv_maxrate=3000 / vbv_bufsize=600 / nal_hrd=none / ip_ratio=1.40 / aq=1:1.00
  36. Default                        : Yes
  37. Forced                         : No

  38. Audio #1
  39. ID                             : 2
  40. Format                         : AC-3
  41. Format/Info                    : Audio Coding 3
  42. Mode extension                 : CM (complete main)
  43. Format settings, Endianness    : Big
  44. Muxing mode                    : Header stripping
  45. Codec ID                       : A_AC3
  46. Duration                       : 1h 20mn
  47. Bit rate mode                  : Constant
  48. Bit rate                       : 384 Kbps
  49. Channel(s)                     : 6 channels
  50. Channel positions              : Front: L C R, Side: L R, LFE
  51. Sampling rate                  : 48.0 KHz
  52. Bit depth                      : 16 bits
  53. Compression mode               : Lossy
  54. Stream size                    : 221 MiB (11%)
  55. Title                          : 粤语
  56. Language                       : Chinese
  57. Default                        : No
  58. Forced                         : No

  59. Audio #2
  60. ID                             : 3
  61. Format                         : AC-3
  62. Format/Info                    : Audio Coding 3
  63. Mode extension                 : CM (complete main)
  64. Format settings, Endianness    : Big
  65. Muxing mode                    : Header stripping
  66. Codec ID                       : A_AC3
  67. Duration                       : 1h 20mn
  68. Bit rate mode                  : Constant
  69. Bit rate                       : 384 Kbps
  70. Channel(s)                     : 6 channels
  71. Channel positions              : Front: L C R, Side: L R, LFE
  72. Sampling rate                  : 48.0 KHz
  73. Bit depth                      : 16 bits
  74. Compression mode               : Lossy
  75. Stream size                    : 221 MiB (11%)
  76. Title                          : 国语
  77. Language                       : Chinese
  78. Default                        : Yes
  79. Forced                         : No

  80. Text
  81. ID                             : 4
  82. Format                         : UTF-8
  83. Codec ID                       : S_TEXT/UTF8
  84. Codec ID/Info                  : UTF-8 Plain Text
  85. Language                       : Chinese
  86. Default                        : Yes
  87. Forced                         : No
复制代码

下载地址:
游客,如果您要查看本帖隐藏内容请回复


2880

粉丝

710

关注

18245

微博
发表于 2015-1-21 01:39 | 显示全部楼层
记得小时候半夜守在CCTV6等着我又爱又恨的卓一航出现,结果看了半宿的钟丽缇[悲伤][悲伤][悲伤][悲伤]当然了其他演员也很棒哒,都是电影公司惹的祸[doge]
发表于 2015-1-21 01:39 | 显示全部楼层
哥哥出来那瞬间的演技秒杀了其它演员之前铺垫的所有[doge]真的很动人
发表于 2015-1-22 22:07 | 显示全部楼层
永远怀念哥哥,以前收过DVD,不过读不出碟了啦
发表于 2015-1-25 00:13 | 显示全部楼层
多谢分享!
发表于 2015-1-25 20:31 | 显示全部楼层
感谢分享!
发表于 2015-1-29 17:54 | 显示全部楼层
多谢分享!
发表于 2015-1-31 12:55 | 显示全部楼层
虽然是客串,不过镜头中依旧是最光彩的一个。
发表于 2015-2-9 02:25 | 显示全部楼层
谢谢分享!!!
发表于 2015-2-12 19:46 | 显示全部楼层
谢谢分享!!!
发表于 2015-3-17 00:54 | 显示全部楼层
原来还有这么多经典
发表于 2015-3-17 00:56 | 显示全部楼层
原来经典一直都 在
发表于 2015-3-17 15:23 | 显示全部楼层
哥哥和姐姐的
发表于 2015-4-6 22:38 | 显示全部楼层
谢谢楼主分享!
发表于 2015-7-10 19:07 | 显示全部楼层
谢谢分享!
您需要登录后才可以回帖 登录 | 注册 新浪微博登陆

本版积分规则

手机客户端|小黑屋|Archiver|关于我们|联系方式| 荣光无限|沪ICP备09096540号-1

© 2002-2018 荣光无限 - 张国荣歌影迷网   版权所有

快速回复 返回顶部 返回列表