荣光无限论坛

找回密码
注册

QQ登录

新浪微博登陆

搜索
热搜: 邀请 充值 邮箱
查看: 1557|回复: 36
收起左侧

[电影剧集] 1994. 锦绣前程 (DVDRip.香港三区) [2.47GB]

[复制链接]
发表于 2015-1-12 21:56 | 显示全部楼层 |阅读模式

马上注册,结交更多同道中人,享用更多功能,让你轻松融入哥迷大家庭。

您需要 登录 才可以下载或查看,没有帐号?注册 新浪微博登陆

x
电影《锦绣前程》,由导演陈嘉上执导,是一部典型都市小男人爱情和友情喜剧。翡翠高清台曾经播放过HDTV版本,蓝光画质,但加了过场节目预告,剪掉这部分画面再校对字幕太麻烦,所以没采用,而是使用了香港三区发行的 DVD-9 原版制作。

Long_and_Winding_Road.jpg

中文名:锦绣前程
英文名:Long and Winding Road
地 区:香港
类 型:都市、爱情、喜剧
片 长:104分钟
上 映:1994年8月4日
分 级:Hong Kong : IIB
语 言:粤语、国语
制 作:永盛娱乐有限公司(香港)

剧情简介:
林超荣(张国荣)与失败辉(梁家辉)是两个典型中下层小人物。荣向有情场杀手之称号,可惜他的众多女朋友均是无知少女,一过廿三便会离他而去,回归现实。至于辉则是人如其名,对样样事情都不敢全力以赴,恐怕失败。
任职保险经纪的荣,因不遵守游戏规则而被辞退,再加上爱情失意遂厚颜无耻地投靠初恋女友丽(陈妙瑛),并向老支辉借贷到澳门一博,最后败北而回。此际,他与辉遇上了传闻当黑市情人的Rosemund(关之琳),荣盼望藉着她的关系开创事业,更怂勇辉向她展开追求,怎料辉原来一直暗恋在老人院工作的慧(梁思敏),但始终未能表达心意。荣唯有亲自出马,并赢得Rosemund的芳心,可是他竟发觉自己爱上了她。而一直对老人没存好感的辉,却为了慧的关系,愿意接管老人院。荣与辉从不同处境中,终学晓了事业与爱情的真谛……

编码信息:
  1. General
  2. Unique ID                      : 238746074050714096964600436190659056219 (0xB39CD2417F6C3125AD34E0A16915925B)
  3. Format                         : Matroska
  4. Format version                 : Version 4 / Version 2
  5. File size                      : 2.48 GiB
  6. Duration                       : 1h 44mn
  7. Overall bit rate               : 3 405 Kbps
  8. Movie name                     : 錦繡前程 (1994)
  9. Encoded date                   : UTC 2010-02-22 21:41:31
  10. Writing application            : mkvmerge v5.9.0 ('On The Loose') built on Dec  9 2012 15:37:01
  11. Writing library                : libebml v1.3.0 + libmatroska v1.4.0

  12. Video
  13. ID                             : 1
  14. Format                         : AVC
  15. Format/Info                    : Advanced Video Codec
  16. Format profile                 : Main@L3.1
  17. Format settings, CABAC         : Yes
  18. Format settings, ReFrames      : 4 frames
  19. Muxing mode                    : Header stripping
  20. Codec ID                       : V_MPEG4/ISO/AVC
  21. Duration                       : 1h 44mn
  22. Bit rate                       : 2 569 Kbps
  23. Nominal bit rate               : 2 760 Kbps
  24. Width                          : 1 024 pixels
  25. Height                         : 576 pixels
  26. Display aspect ratio           : 16:9
  27. Frame rate mode                : Constant
  28. Frame rate                     : 29.970 fps
  29. Color space                    : YUV
  30. Chroma subsampling             : 4:2:0
  31. Bit depth                      : 8 bits
  32. Scan type                      : Progressive
  33. Bits/(Pixel*Frame)             : 0.145
  34. Stream size                    : 1.87 GiB (75%)
  35. Writing library                : x264 core 116 r2019 9cc407d
  36. Encoding settings              : cabac=1 / ref=3 / deblock=1:0:0 / analyse=0x1:0x111 / me=hex / subme=6 / psy=1 / psy_rd=1.00:0.00 / mixed_ref=1 / me_range=16 / chroma_me=1 / trellis=1 / 8x8dct=0 / cqm=0 / deadzone=21,11 / fast_pskip=1 / chroma_qp_offset=-2 / threads=6 / sliced_threads=0 / nr=0 / decimate=1 / interlaced=0 / bluray_compat=0 / constrained_intra=0 / bframes=3 / b_pyramid=2 / b_adapt=1 / b_bias=0 / direct=1 / weightb=1 / open_gop=0 / weightp=2 / keyint=250 / keyint_min=25 / scenecut=40 / intra_refresh=0 / rc_lookahead=40 / rc=abr / mbtree=1 / bitrate=2760 / ratetol=1.0 / qcomp=0.60 / qpmin=0 / qpmax=69 / qpstep=4 / vbv_maxrate=3000 / vbv_bufsize=600 / nal_hrd=none / ip_ratio=1.40 / aq=1:1.00
  37. Default                        : Yes
  38. Forced                         : No

  39. Audio #1
  40. ID                             : 2
  41. Format                         : AC-3
  42. Format/Info                    : Audio Coding 3
  43. Mode extension                 : CM (complete main)
  44. Format settings, Endianness    : Big
  45. Muxing mode                    : Header stripping
  46. Codec ID                       : A_AC3
  47. Duration                       : 1h 44mn
  48. Bit rate mode                  : Constant
  49. Bit rate                       : 384 Kbps
  50. Channel(s)                     : 6 channels
  51. Channel positions              : Front: L C R, Side: L R, LFE
  52. Sampling rate                  : 48.0 KHz
  53. Bit depth                      : 16 bits
  54. Compression mode               : Lossy
  55. Stream size                    : 286 MiB (11%)
  56. Title                          : 粤语
  57. Language                       : Chinese
  58. Default                        : Yes
  59. Forced                         : No

  60. Audio #2
  61. ID                             : 3
  62. Format                         : AC-3
  63. Format/Info                    : Audio Coding 3
  64. Mode extension                 : CM (complete main)
  65. Format settings, Endianness    : Big
  66. Muxing mode                    : Header stripping
  67. Codec ID                       : A_AC3
  68. Duration                       : 1h 44mn
  69. Bit rate mode                  : Constant
  70. Bit rate                       : 384 Kbps
  71. Channel(s)                     : 6 channels
  72. Channel positions              : Front: L C R, Side: L R, LFE
  73. Sampling rate                  : 48.0 KHz
  74. Bit depth                      : 16 bits
  75. Compression mode               : Lossy
  76. Stream size                    : 286 MiB (11%)
  77. Title                          : 国语
  78. Language                       : Chinese
  79. Default                        : No
  80. Forced                         : No

  81. Text #1
  82. ID                             : 4
  83. Format                         : VobSub
  84. Muxing mode                    : zlib
  85. Codec ID                       : S_VOBSUB
  86. Codec ID/Info                  : The same subtitle format used on DVDs
  87. Title                          : 繁体中文
  88. Language                       : Chinese
  89. Default                        : Yes
  90. Forced                         : No

  91. Text #2
  92. ID                             : 5
  93. Format                         : VobSub
  94. Muxing mode                    : zlib
  95. Codec ID                       : S_VOBSUB
  96. Codec ID/Info                  : The same subtitle format used on DVDs
  97. Title                          : 简体中文
  98. Language                       : Chinese
  99. Default                        : No
  100. Forced                         : No

  101. Text #3
  102. ID                             : 6
  103. Format                         : VobSub
  104. Muxing mode                    : zlib
  105. Codec ID                       : S_VOBSUB
  106. Codec ID/Info                  : The same subtitle format used on DVDs
  107. Title                          : English
  108. Language                       : English
  109. Default                        : No
  110. Forced                         : No
复制代码

下载地址:
游客,如果您要查看本帖隐藏内容请回复


发表于 2015-1-15 00:41 | 显示全部楼层
多谢楼主分享楼主辛苦了
发表于 2015-1-18 10:08 | 显示全部楼层
抱走~哈哈谢谢~楼主辛苦了!
发表于 2015-1-20 14:29 | 显示全部楼层
非常喜欢的一部作品。
发表于 2015-1-22 22:10 | 显示全部楼层
多谢分享啦,要收藏好多啊。
发表于 2015-1-25 00:21 | 显示全部楼层
多谢分享!
发表于 2015-1-25 20:26 | 显示全部楼层
感谢分享
发表于 2015-2-2 11:09 | 显示全部楼层
手动赞~~
发表于 2015-2-2 11:10 | 显示全部楼层
多谢分享!
发表于 2015-2-5 01:23 | 显示全部楼层
非常感谢分享!辛苦了!
发表于 2015-2-11 21:47 | 显示全部楼层
谢谢分享!!!
发表于 2015-2-17 16:41 | 显示全部楼层
不一样的哥哥。
发表于 2015-2-17 23:15 | 显示全部楼层
新年快乐。感谢分享。
发表于 2015-3-17 01:01 | 显示全部楼层
哥哥的电影都是经典      
发表于 2015-3-17 15:22 | 显示全部楼层
720p的????
您需要登录后才可以回帖 登录 | 注册 新浪微博登陆

本版积分规则

手机客户端|小黑屋|Archiver|关于我们|联系方式| 荣光无限|沪ICP备09096540号-1

© 2002-2018 荣光无限 - 张国荣歌影迷网   版权所有

快速回复 返回顶部 返回列表