荣光无限论坛

找回密码
注册

QQ登录

新浪微博登陆

搜索
热搜: 邀请 充值 邮箱
查看: 2298|回复: 45
收起左侧

[电影剧集] 1996. 风月 (DVDRip.法国二区) [2.6GB]

[复制链接]
发表于 2015-1-11 23:25 | 显示全部楼层 |阅读模式

马上注册,结交更多同道中人,享用更多功能,让你轻松融入哥迷大家庭。

您需要 登录 才可以下载或查看,没有帐号?注册 新浪微博登陆

x
Temptress_Moon.jpg
导演:陈凯歌
编剧:舒琪 / 王安忆 / 陈凯歌
主演:张国荣 / 巩俐 / 林建华 / 何赛飞 / 任雷 / 更多...
类型:剧情 / 爱情
地区:香港 / 中国
语言:普通话
上映:1996-05-09
片长:130 分钟 / Argentina: 132 分钟 / Sweden: 115 分钟 / UK: 127 分钟
又名:Temptress Moon
IMDb链接:tt0116295

剧情简介:
父母双亡的忠良(张国荣)投靠嫁入庞家的姐姐秀仪(何赛飞)时,处处受到姐夫的挤兑和侮辱,一怒之下用鸦片毒废了姐夫,逃到上海后,阴差阳错投入黑帮头目大大门下,成为利用色相勾引富家太太上钩再勒索其钱财的“拆白党”。
庞府老爷死后,大小姐如意(巩俐)被立为主事,为骗庞家财产,大大命忠良回到庞府引诱如意,岂料两人日久生出真情,不忍再欺骗如意的忠良独身返回上海,而如意也被大大接到上海,眼见了忠良所从事的“拆白党”勾当,心生死灰。

编码信息:
  1. General
  2. Unique ID                      : 225651332392091556092794353835822469025 (0xA9C2DDA55CC92625BC623FEF089ACFA1)
  3. Format                         : Matroska
  4. Format version                 : Version 4 / Version 2
  5. File size                      : 2.61 GiB
  6. Duration                       : 2h 7mn
  7. Overall bit rate               : 2 931 Kbps
  8. Movie name                     : 风月 (1996)
  9. Encoded date                   : UTC 2010-02-22 21:41:31
  10. Writing application            : mkvmerge v5.9.0 ('On The Loose') built on Dec  9 2012 15:37:01
  11. Writing library                : libebml v1.3.0 + libmatroska v1.4.0

  12. Video
  13. ID                             : 1
  14. Format                         : AVC
  15. Format/Info                    : Advanced Video Codec
  16. Format profile                 : Main@L3.1
  17. Format settings, CABAC         : Yes
  18. Format settings, ReFrames      : 4 frames
  19. Muxing mode                    : Header stripping
  20. Codec ID                       : V_MPEG4/ISO/AVC
  21. Duration                       : 2h 7mn
  22. Bit rate                       : 2 760 Kbps
  23. Width                          : 1 024 pixels
  24. Height                         : 576 pixels
  25. Display aspect ratio           : 16:9
  26. Frame rate mode                : Constant
  27. Frame rate                     : 25.000 fps
  28. Color space                    : YUV
  29. Chroma subsampling             : 4:2:0
  30. Bit depth                      : 8 bits
  31. Scan type                      : Progressive
  32. Bits/(Pixel*Frame)             : 0.187
  33. Stream size                    : 2.39 GiB (91%)
  34. Writing library                : x264 core 116 r2019 9cc407d
  35. Encoding settings              : cabac=1 / ref=3 / deblock=1:0:0 / analyse=0x1:0x111 / me=hex / subme=6 / psy=1 / psy_rd=1.00:0.00 / mixed_ref=1 / me_range=16 / chroma_me=1 / trellis=1 / 8x8dct=0 / cqm=0 / deadzone=21,11 / fast_pskip=1 / chroma_qp_offset=-2 / threads=3 / sliced_threads=0 / nr=0 / decimate=1 / interlaced=0 / bluray_compat=0 / constrained_intra=0 / bframes=3 / b_pyramid=2 / b_adapt=1 / b_bias=0 / direct=1 / weightb=1 / open_gop=0 / weightp=2 / keyint=250 / keyint_min=25 / scenecut=40 / intra_refresh=0 / rc_lookahead=40 / rc=abr / mbtree=1 / bitrate=2760 / ratetol=1.0 / qcomp=0.60 / qpmin=0 / qpmax=69 / qpstep=4 / vbv_maxrate=3500 / vbv_bufsize=700 / nal_hrd=none / ip_ratio=1.40 / aq=1:1.00
  36. Default                        : Yes
  37. Forced                         : No

  38. Audio
  39. ID                             : 2
  40. Format                         : AC-3
  41. Format/Info                    : Audio Coding 3
  42. Mode extension                 : CM (complete main)
  43. Format settings, Endianness    : Big
  44. Muxing mode                    : Header stripping
  45. Codec ID                       : A_AC3
  46. Duration                       : 2h 7mn
  47. Bit rate mode                  : Constant
  48. Bit rate                       : 192 Kbps
  49. Channel(s)                     : 2 channels
  50. Channel positions              : Front: L R
  51. Sampling rate                  : 48.0 KHz
  52. Bit depth                      : 16 bits
  53. Compression mode               : Lossy
  54. Stream size                    : 175 MiB (7%)
  55. Language                       : Chinese
  56. Default                        : Yes
  57. Forced                         : No

  58. Text #1
  59. ID                             : 3
  60. Format                         : VobSub
  61. Muxing mode                    : zlib
  62. Codec ID                       : S_VOBSUB
  63. Codec ID/Info                  : The same subtitle format used on DVDs
  64. Language                       : Chinese
  65. Default                        : Yes
  66. Forced                         : No

  67. Text #2
  68. ID                             : 4
  69. Format                         : VobSub
  70. Muxing mode                    : zlib
  71. Codec ID                       : S_VOBSUB
  72. Codec ID/Info                  : The same subtitle format used on DVDs
  73. Language                       : English
  74. Default                        : No
  75. Forced                         : No
复制代码

下载地址:
游客,如果您要查看本帖隐藏内容请回复

发表于 2015-1-12 23:14 | 显示全部楼层
发表于 2015-1-20 14:27 | 显示全部楼层
可以洗版了,感谢大大分享。
发表于 2015-1-25 00:22 | 显示全部楼层
为了特写镜头而来~~
发表于 2015-1-25 20:24 | 显示全部楼层
感谢
发表于 2015-1-27 17:43 | 显示全部楼层
看了图片真心想看,谢谢分享!
发表于 2015-1-29 11:57 | 显示全部楼层
感谢分享!
发表于 2015-2-9 02:59 | 显示全部楼层
谢谢分享!!!
发表于 2015-2-12 19:40 | 显示全部楼层
谢谢分享!!!
发表于 2015-2-20 15:19 | 显示全部楼层
忠良....哥哥演得很好
发表于 2015-3-5 20:20 | 显示全部楼层
陈导的电影 一定要看!
发表于 2015-3-13 22:09 | 显示全部楼层
颜值高的不小心就会忘了台词在说什么了
杜可风是真爱啊
发表于 2015-3-16 00:17 | 显示全部楼层
比之前我下载的清晰
发表于 2015-4-5 20:33 | 显示全部楼层
很想看啊,哥哥和巩俐的演绎
发表于 2015-4-14 12:29 | 显示全部楼层
没有看过这部电影。
您需要登录后才可以回帖 登录 | 注册 新浪微博登陆

本版积分规则

手机客户端|小黑屋|Archiver|关于我们|联系方式| 荣光无限|沪ICP备09096540号-1

© 2002-2018 荣光无限 - 张国荣歌影迷网   版权所有

快速回复 返回顶部 返回列表